Dead Space las 2 peliculas AFTERMATH amp DOWNFALL BR

Hola Gente, buena noche!


Estas películas se sitúan cronológicamente hablando ANTES del primer Dead Space, antes de la llegada del desafortunado Issac Clark, y la desgracia que le paso al Ishimura.

Son muy GRAFICAS y tienen alto contenido GORE, así como desmembramientos, destripamientos y finales del estilo de los juegos, osea BUENÍSIMOS!

Las dos son animadas, y por desgracia no hicieron mas, pero bueno estas están sobradamente entretenidas
Ambas son de calidad BLURAY y si quieren detalles tecnicos para aburrirlos les dejo mas abajo TODO eso.

Tambien podria poner un resumen, y blablabla pero nah para que aburrirlos.

Aca les dejo DOS peliculones con audios VARIOS
entre ellos el español (gallego ) Por lo que yo recomiendo verla y OIRLA en su idioma original, pero tranqui que trae subs en español, y para que vean como es un DOBLAJE ruso, que mas que doblaje es narración.



Dead Space Downfall


Informacion tecnica

Format                         : Matroska
Format version                 : Version 2
File size                      : 4.38 GiB
Duration                       : 1h 14mn
Overall bit rate mode          : Variable
Overall bit rate               : 8 422 Kbps
Encoded date                   : UTC 2012-05-04 11:06:40
Writing application            : mkvmerge v5.5.0 ('Healer') built on Apr  6 2012 21:43:24
Writing library                : libebml v1.2.3 + libmatroska v1.3.0

Video
ID                             : 1
Format                         : AVC
Format/Info                    : Advanced Video Codec
Format profile                 : [email protected]
Format settings, CABAC         : Yes
Format settings, ReFrames      : 4 frames
Codec ID                       : V_MPEG4/ISO/AVC
Duration                       : 1h 14mn
Bit rate mode                  : Variable
Nominal bit rate               : 6 641 Kbps
Maximum bit rate               : 40.0 Mbps
Width                          : 1 920 pixels
Height                         : 1 080 pixels
Display aspect ratio           : 16:9
Frame rate mode                : Constant
Frame rate                     : 23.976 fps
Color space                    : YUV
Chroma subsampling             : 4:2:0
Bit depth                      : 8 bits
Scan type                      : Progressive
Bits/(Pixel*Frame)             : 0.134
Title                          : Dead Space - La forza oscura - Dead Space - Downfall [BDRip 1080p][RiP By MaX]
Writing library                : x264 core 124 r2197 69a0443
Encoding settings              : cabac=1 / ref=4 / deblock=1:1:1 / analyse=0x3:0x133 / me=umh / subme=7 / psy=1 / psy_rd=0.40:0.00 / mixed_ref=0 / me_range=32 / chroma_me=1 / trellis=2 / 8x8dct=1 / cqm=0 / deadzone=21,11 / fast_pskip=0 / chroma_qp_offset=-2 / threads=12 / sliced_threads=0 / nr=0 / decimate=1 / interlaced=0 / bluray_compat=1 / constrained_intra=0 / bframes=3 / b_pyramid=0 / b_adapt=2 / b_bias=0 / direct=1 / weightb=1 / open_gop=1 / weightp=1 / keyint=230 / keyint_min=1 / scenecut=40 / intra_refresh=0 / rc_lookahead=40 / rc=2pass / mbtree=1 / bitrate=6641 / ratetol=1.0 / qcomp=0.60 / qpmin=10 / qpmax=51 / qpstep=4 / cplxblur=20.0 / qblur=0.5 / vbv_maxrate=40000 / vbv_bufsize=40000 / nal_hrd=vbr / ip_ratio=1.40 / aq=1:0.60
Language                       : Italian
Default                        : Yes
Forced                         : No
Color range                    : Limited
Matrix coefficients            : BT.709

Audio #1
ID                             : 2
Format                         : AC-3
Format/Info                    : Audio Coding 3
Mode extension                 : CM (complete main)
Format settings, Endianness    : Big
Codec ID                       : A_AC3
Duration                       : 1h 14mn
Bit rate mode                  : Constant
Bit rate                       : 448 Kbps
Channel(s)                     : 6 channels
Channel positions              : Front: L C R, Side: L R, LFE
Sampling rate                  : 48.0 KHz
Compression mode               : Lossy
Stream size                    : 238 MiB (5%)
Title                          : Ita Ac3 5.1
Language                       : Italian
Default                        : Yes
Forced                         : No

Audio #2
ID                             : 3
Format                         : AC-3
Format/Info                    : Audio Coding 3
Mode extension                 : CM (complete main)
Format settings, Endianness    : Big
Codec ID                       : A_AC3
Duration                       : 1h 14mn
Bit rate mode                  : Constant
Bit rate                       : 448 Kbps
Channel(s)                     : 6 channels
Channel positions              : Front: L C R, Side: L R, LFE
Sampling rate                  : 48.0 KHz
Compression mode               : Lossy
Stream size                    : 238 MiB (5%)
Title                          : Eng Ac3 5.1
Language                       : English
Default                        : No
Forced                         : No

Audio #3
ID                             : 4
Format                         : AC-3
Format/Info                    : Audio Coding 3
Mode extension                 : CM (complete main)
Format settings, Endianness    : Big
Codec ID                       : A_AC3
Duration                       : 1h 14mn
Bit rate mode                  : Constant
Bit rate                       : 384 Kbps
Channel(s)                     : 6 channels
Channel positions              : Front: L C R, Side: L R, LFE
Sampling rate                  : 48.0 KHz
Compression mode               : Lossy
Stream size                    : 204 MiB (5%)
Title                          : Esp Ac3 5.1
Language                       : Spanish
Default                        : No
Forced                         : No

Audio #4
ID                             : 5
Format                         : AAC
Format/Info                    : Advanced Audio Codec
Format profile                 : HE-AAC / LC
Codec ID                       : A_AAC
Duration                       : 1h 14mn
Channel(s)                     : 6 channels
Channel positions              : Front: L C R, Side: L R, LFE
Sampling rate                  : 48.0 KHz / 24.0 KHz
Compression mode               : Lossy
Delay relative to video        : 31ms
Title                          : Fre Aac 5.1
Language                       : French
Default                        : No
Forced                         : No

Audio #5
ID                             : 6
Format                         : AAC
Format/Info                    : Advanced Audio Codec
Format profile                 : HE-AAC / LC
Codec ID                       : A_AAC
Duration                       : 1h 14mn
Channel(s)                     : 6 channels
Channel positions              : Front: L C R, Side: L R, LFE
Sampling rate                  : 48.0 KHz / 24.0 KHz
Compression mode               : Lossy
Delay relative to video        : 31ms
Title                          : Rus Aac 5.1
Language                       : Russian
Default                        : No
Forced                         : No

Text #1
ID                             : 7
Format                         : VobSub
Codec ID                       : S_VOBSUB
Codec ID/Info                  : Picture based subtitle format used on DVDs
Title                          : Sub Ita
Language                       : Italian
Default                        : No
Forced                         : No

Text #2
ID                             : 8
Format                         : VobSub
Codec ID                       : S_VOBSUB
Codec ID/Info                  : Picture based subtitle format used on DVDs
Title                          : Sub Eng
Language                       : English
Default                        : No
Forced                         : No

Text #3
ID                             : 9
Format                         : VobSub
Codec ID                       : S_VOBSUB
Codec ID/Info                  : Picture based subtitle format used on DVDs
Title                          : Sub Esp
Language                       : Spanish
Default                        : No
Forced                         : No

Text #4
ID                             : 10
Format                         : VobSub
Codec ID                       : S_VOBSUB
Codec ID/Info                  : Picture based subtitle format used on DVDs
Title                          : Sub Fre
Language                       : French
Default                        : No
Forced                         : No

Text #5
ID                             : 11
Format                         : VobSub
Codec ID                       : S_VOBSUB
Codec ID/Info                  : Picture based subtitle format used on DVDs
Title                          : Sub Ara
Language                       : Arabic
Default                        : No
Forced                         : No

Text #6
ID                             : 12
Format                         : VobSub
Codec ID                       : S_VOBSUB
Codec ID/Info                  : Picture based subtitle format used on DVDs
Title                          : Sub Chi
Language                       : Chinese
Default                        : No
Forced                         : No

Text #7
ID                             : 13
Format                         : VobSub
Codec ID                       : S_VOBSUB
Codec ID/Info                  : Picture based subtitle format used on DVDs
Title                          : Sub Dan
Language                       : Danish
Default                        : No
Forced                         : No

Text #8
ID                             : 14
Format                         : VobSub
Codec ID                       : S_VOBSUB
Codec ID/Info                  : Picture based subtitle format used on DVDs
Title                          : Sub Ned
Language                       : Dutch
Default                        : No
Forced                         : No

Text #9
ID                             : 15
Format                         : VobSub
Codec ID                       : S_VOBSUB
Codec ID/Info                  : Picture based subtitle format used on DVDs
Title                          : Sub Fin
Language                       : Finnish
Default                        : No
Forced                         : No

Text #10
ID                             : 16
Format                         : VobSub
Codec ID                       : S_VOBSUB
Codec ID/Info                  : Picture based subtitle format used on DVDs
Title                          : Sub Gre
Language                       : Greek
Default                        : No
Forced                         : No

Text #11
ID                             : 17
Format                         : VobSub
Codec ID                       : S_VOBSUB
Codec ID/Info                  : Picture based subtitle format used on DVDs
Title                          : Sub Heb
Language                       : Hebrew
Default                        : No
Forced                         : No

Text #12
ID                             : 18
Format                         : VobSub
Codec ID                       : S_VOBSUB
Codec ID/Info                  : Picture based subtitle format used on DVDs
Title                          : Sub Hin
Language                       : Hindi
Default                        : No
Forced                         : No

Text #13
ID                             : 19
Format                         : VobSub
Codec ID                       : S_VOBSUB
Codec ID/Info                  : Picture based subtitle format used on DVDs
Title                          : Sub Ice
Language                       : Icelandic
Default                        : No
Forced                         : No

Text #14
ID                             : 20
Format                         : VobSub
Codec ID                       : S_VOBSUB
Codec ID/Info                  : Picture based subtitle format used on DVDs
Title                          : Sub Nor
Language                       : Norwegian
Default                        : No
Forced                         : No

Text #15
ID                             : 21
Format                         : VobSub
Codec ID                       : S_VOBSUB
Codec ID/Info                  : Picture based subtitle format used on DVDs
Title                          : Sub Pol
Language                       : Polish
Default                        : No
Forced                         : No

Text #16
ID                             : 22
Format                         : VobSub
Codec ID                       : S_VOBSUB
Codec ID/Info                  : Picture based subtitle format used on DVDs
Title                          : Sub Por
Language                       : Portuguese
Default                        : No
Forced                         : No

Text #17
ID                             : 23
Format                         : VobSub
Codec ID                       : S_VOBSUB
Codec ID/Info                  : Picture based subtitle format used on DVDs
Title                          : Sub Swe
Language                       : Swedish
Default                        : No
Forced                         : No

Text #18
ID                             : 24
Format                         : VobSub
Codec ID                       : S_VOBSUB
Codec ID/Info                  : Picture based subtitle format used on DVDs
Title                          : Sub Tha
Language                       : Thai
Default                        : No
Forced                         : No

Menu
00:00:00.000                   : :01
00:04:37.736                   : :02
00:10:51.776                   : :03
00:15:27.301                   : :04
00:22:32.935                   : :05
00:30:09.141                   : :06
00:35:22.287                   : :07
00:45:36.359                   : :08
00:51:46.979                   : :09
00:54:56.710                   : :10
01:05:20.625                   : :11
01:10:27.223                   : :12
















Dead Space Aftermath


Informacion tecnica



Format                         : Matroska
Format version                 : Version 2
File size                      : 4.35 GiB
Duration                       : 1h 17mn
Overall bit rate               : 8 022 Kbps
Encoded date                   : UTC 2011-01-29 11:04:53
Writing application            : mkvmerge v3.2.0 ('Beginnings') built on Feb 12 2010 16:46:17
Writing library                : libebml v0.7.9 + libmatroska v0.8.1

Video
ID                             : 1
Format                         : AVC
Format/Info                    : Advanced Video Codec
Format profile                 : [email protected]
Format settings, CABAC         : Yes
Format settings, ReFrames      : 5 frames
Codec ID                       : V_MPEG4/ISO/AVC
Duration                       : 1h 17mn
Bit rate                       : 6 512 Kbps
Width                          : 1 920 pixels
Height                         : 816 pixels
Display aspect ratio           : 2.35:1
Frame rate mode                : Constant
Frame rate                     : 23.976 fps
Color space                    : YUV
Chroma subsampling             : 4:2:0
Bit depth                      : 8 bits
Scan type                      : Progressive
Bits/(Pixel*Frame)             : 0.173
Stream size                    : 3.45 GiB (79%)
Writing library                : x264 core 93 r1538 bd72d46
Encoding settings              : cabac=1 / ref=5 / deblock=1:0:0 / analyse=0x3:0x133 / me=umh / subme=9 / psy=1 / psy_rd=1.00:0.00 / mixed_ref=1 / me_range=16 / chroma_me=1 / trellis=1 / 8x8dct=1 / cqm=0 / deadzone=21,11 / fast_pskip=1 / chroma_qp_offset=-2 / threads=4 / sliced_threads=0 / nr=0 / decimate=1 / interlaced=0 / constrained_intra=0 / bframes=3 / b_pyramid=0 / b_adapt=1 / b_bias=0 / direct=3 / wpredb=1 / wpredp=2 / keyint=250 / keyint_min=25 / scenecut=40 / intra_refresh=0 / rc_lookahead=40 / rc=2pass / mbtree=1 / bitrate=6512 / ratetol=1.0 / qcomp=0.50 / qpmin=10 / qpmax=51 / qpstep=4 / cplxblur=20.0 / qblur=0.5 / ip_ratio=1.40 / aq=1:1.00
Default                        : Yes
Forced                         : No

Audio
ID                             : 2
Format                         : DTS
Format/Info                    : Digital Theater Systems
Mode                           : 16
Format settings, Endianness    : Big
Codec ID                       : A_DTS
Duration                       : 1h 17mn
Bit rate mode                  : Constant
Bit rate                       : 1 510 Kbps
Channel(s)                     : 6 channels
Channel positions              : Front: L C R, Side: L R, LFE
Sampling rate                  : 48.0 KHz
Bit depth                      : 24 bits
Compression mode               : Lossy
Stream size                    : 839 MiB (19%)
Language                       : English
Default                        : Yes
Forced                         : No

Text #1
ID                             : 3
Format                         : UTF-8
Codec ID                       : S_TEXT/UTF8
Codec ID/Info                  : UTF-8 Plain Text
Language                       : English
Default                        : No
Forced                         : No

Text #2
ID                             : 4
Format                         : UTF-8
Codec ID                       : S_TEXT/UTF8
Codec ID/Info                  : UTF-8 Plain Text
Language                       : Spanish
Default                        : No
Forced                         : No














Sin contraseña. y sin restricciones

Disfrutenlas, dejen puntos, recomiendenme con sus amigos.

SALUDINES!!!


Dead Space las 2 peliculas AFTERMATH amp DOWNFALL BR
20 Puntos Score: 10/10
Visitas: 1076 Favoritos: 5
Ver los usuarios que votaron...
8 Comentarios Dead Space las 2 peliculas AFTERMATH amp DOWNFALL BR
Siempre quise ver estas peliculas de Dead Space pero no le encontraba subtitulada o una calidad decente, muchas gracias por el aporte!  
ya acabe los 3 juegos en la xbox 360 son mis preferidos
en gallego jajaja me las llevo ese idioma lo entiendo de echo soy de galicia asi que no hay problema  
@Lobito130 YTo las tengo hace un buen rato, y es cierto, actualmente no se encuentran ni en torrent que fue de donde yo las baje, un gusto que te guste

@pepe01963 Si, excelentes survival horror, y si jugaste la expansion del 3, sabes que aun queda MUCHO por descuartizar, lo malo es que aun no dicen para cuando

@Dani9 EXCELENTE TIO!!!
Hola me podrias pasar los links ya que en el jdloader me aparecen temporalmente no disponibles ya me jugue los 3 juegos pero no se como comenzo todo
Que post mas cacuso
@diegonki Oh un niño rata llego, habría que encerrarlo y meterlo en un laberinto con un "minecra" de premio si lo completa
buenisimo! gracias por el aporte!!
Para dejar un comentario Registrate! o.. eres ya usuario? Accede!