educap
"Por qué algo y no más bien nada?"

Galería nocturna-1970-73-Temporada 1 y 2 de 3-Mega

Galería nocturna-1970-73-Temporada 1 y 2 de 3-Mega









Hola amigos, les dejo esta serie, o mejor, dos temporadas de esta serie, que consta de tres; faltarian 17 caps de la 3a. temp.
En todo caso les dejo las dos primeras temporadas que son las únicas que tengo, en latino, y más adelante les dejo las que falten.

Lo que puedo decir es que el chavoncito este, Rod Serling, es el mismo de La dimension desconocida, de modo que si bien a mi no me gusta tanto como esa serie (solo miré dos o tres caps), algo del estilo tiene, genero ciencia ficcion, mezclada con terror...


 

Ripeo: educap
Uploder: educap
Servidor: Mega (perdón, estoy acostumbrado a este)
Calidad: buena

Format                      : Matroska
Format version              : Version 2
File size                   : 273 MiB
Duration                    : 50mn 58s
Overall bit rate mode       : Constant
Overall bit rate            : 748 Kbps
Movie name                  : 2x21
Encoded date                : UTC 2016-04-30 07:40:36
Writing application         : DVDFab 9.2.3.7
Writing library             : libebml v0.7.8 + libmatroska v0.8.1

Video
ID                          : 1
Format                      : AVC
Format/Info                 : Advanced Video Codec
Format profile              : [email protected]
Format settings, CABAC      : Yes
Format settings, ReFrames   : 1 frame
Format settings, GOP        : M=1, N=24
Codec ID                    : V_MPEG4/ISO/AVC
Duration                    : 50mn 58s
Bit rate mode               : Constant
Bit rate                    : 625 Kbps
Width                       : 720 pixels
Height                      : 540 pixels
Display aspect ratio        : 4:3
Frame rate mode             : Constant
Frame rate                  : 23.976 (24000/1001) fps
Color space                 : YUV
Chroma subsampling          : 4:2:0
Bit depth                   : 8 bits
Scan type                   : Progressive
Bits/(Pixel*Frame)          : 0.067
Stream size                 : 221 MiB (81%)
Default                     : Yes
Forced                      : No
Color range                 : Limited
Color primaries             : BT.709
Transfer characteristics    : BT.709
Matrix coefficients         : BT.709

Audio
ID                          : 2
Format                      : AC-3
Format/Info                 : Audio Coding 3
Mode extension              : CM (complete main)
Format settings, Endianness : Big
Codec ID                    : A_AC3
Duration                    : 50mn 58s
Bit rate mode               : Constant
Bit rate                    : 128 Kbps
Channel(s)                  : 2 channels
Channel positions           : Front: L R
Sampling rate               : 48.0 KHz
Frame rate                  : 31.250 fps (1536 spf)
Compression mode            : Lossy
Stream size                 : 46.7 MiB (17%)
Language                    : Spanish
Default                     : No
Forced                      : No













educap
Galería nocturna-1970-73-Temporada 1 y 2 de 3-Mega
181 Puntos Score: 9.1/10
Visitas: 1598 Favoritos: 13
Ver los usuarios que votaron...
21 Comentarios Galería nocturna-1970-73-Temporada 1 y 2 de 3-Mega
esta bueno el tema pero revisa el enlace no sirve
no lo puedo cargar!!!!
Gracias, pero no carga
Gracias perp......no se cargan los enlaes.....
No habia visto esta serie, pero me gustaria descargarlo pero no hay enlaces
No carga los links
Voy a ver que tal esta, ya que se ve de mejor calidad de la que tengo. GRACIAS  
Gracias!!!!!!!!!!!
PERFECTO !!! GRACIAS  
muchas gracias!!!
@steel_666 ok. la verdad prefiero el consuelo de que la van a descargar, y asi no se va a morir el conocimiento; yo no las voy a tener para siempre.... saludos!
una pregunta le falta mas capitulos?
@RDP_Salim falta la temporada 3, que consta de 17 caps segun imdb
Gracias    saluditos
Recuerdo cuando niño que vi esta serie y era bastante tenebrosa, había un capítulo donde una señora que tenia muy buena mano para las plantas es desalojada y asesinada, pero justo antes de ser asesinada alcanza a cortarse un dedo y plantarlo... lo que crece después es algo horrendo buscando venganza, ¡Espero encontrar ese capítulo aquí!
@marcelgabo hola, sí, debe ser el cap 15 de la 2a temporada, "dedos verdes", gracias por valorar, saludos
que recuerdos, gracias por el aporte lo voy a disfrutar.
@raveli gracias amigo  
Para dejar un comentario Registrate! o.. eres ya usuario? Accede!