libardomm
"Ciencia es mucho más una forma de pensar que un cuerpo de conocimient"

Un mentiroso Honesto-[Super Documental]






Información:


 Es un documental a modo de completo homenaje sobre la vida de «El increíble Randi», uno de los más reputados azotadores de magufos que ha conocido la historia.
Randi comenzó su carrera como mago y escapista (estilo Houdini) y durante décadas se ha disfrazado de «personajes» para infiltrarse en sus círculos. Ha retado a médiums, espiritistas y «gente con poderes» para luego desenmascarar todos y cada uno de sus trucos, siempre con un estupendo sentido del humor. Porque, como decía el divulgador Martin Gardner, «para desenmascarar a un embaucador no hace falta meterlo en una habitación con científicos e instrumentos, sino que le observe un buen mago».
Especialmente conocidas son sus batallitas con el psíquico Uri Geller, contra la homeopatía, los mentalistas (y su famoso Reto del millón de dólares a quien demostrara «tener poderes paranormales»). Hace unos años pasó por el NeuroMagic 2011 de España donde dio una interesante charla. A sus 87 años sigue tan activo como munca, publicando en su Fundación diversos vídeos, un podcast y hasta una enciclopedia de fraudes, hoaxes, lo oculto y lo sobrenatural.
Entre las figuras que aparecen en el documental están los magos Penn & Teller, el cazador de mitos Adam Savage y figuras como Richard Wiseman, Alice Cooper y el mismísimo Uri Geller.












Mediainfo :

Video
ID : 0
Format : MPEG-4 Visual
Format profile : [email protected]
Format settings, BVOP : No
Format settings, QPel : No
Format settings, GMC : No warppoints
Format settings, Matrix : Default (H.263)
Codec ID : XVID
Codec ID/Hint : XviD
Duration : 1h 32mn
Bit rate : 3 797 Kbps
Width : 1 280 pixels
Height : 690 pixels
Display aspect ratio : 1.85:1
Frame rate : 23.976 fps
Color space : YUV
Chroma subsampling : 4:2:0
Bit depth : 8 bits
Scan type : Progressive
Compression mode : Lossy
Bits/(Pixel*Frame) : 0.179
Stream size : 2.45 GiB (91%)
Writing library : Lavc56.13.100

Audio
ID : 1
Format : AC-3
Format/Info : Audio Coding 3
Mode extension : CM (complete main)
Format settings, Endianness : Big
Codec ID : 2000
Duration : 1h 32mn
Bit rate mode : Constant
Bit rate : 384 Kbps
Channel(s) : 6 channels
Channel positions : Front: L C R, Side: L R, LFE
Sampling rate : 48.0 KHz
Bit depth : 16 bits
Compression mode : Lossy
Stream size : 253 MiB (9%)
Alignment : Aligned on interleaves
Interleave, duration : 42 ms (1.00 video frame)
Interleave, preload duration : 512 ms




Enlaces De Descarga



Un mentiroso Honesto-[Super Documental]
65 Puntos Score: 8.1/10
Visitas: 1722 Favoritos: 4
Ver los usuarios que votaron...
13 Comentarios Un mentiroso Honesto-[Super Documental]
Todos los seres humanos somos hijos del Dios Alt?
[Por cierto, si tiene subtitulos en espa?
suena  bien   gracias
Estos aportes me encantan, muchas gracias por compartirlos estimado, saludos  
Excelente aporte, muchas gracias por subirlo  
muchas gracias amigo se ve muy interesante me lo llevo para coleccion oye la contrase?
buen post man. Pero como me asustaste con la imagen de Sagan al ingresar a la p?
Muchas gracias. + 10
Para dejar un comentario Registrate! o.. eres ya usuario? Accede!