Outland (1981)-1080p- Latino - Exclusivo Identi -





Hola amigos de Identi...  en esta ocasión les traigo un APORTE EXCLUSIVO!!!!   Revisé en varias páginas y no se encuentra con audio latino, solo español o inglés.. así que aprovechen!!!



Oultand o Atmósfera Cero con audio ESPAÑOL LATINO... fué algo difícil conseguirlo pero por fin lo pude encontrar, dice la página donde encontré y descargué el audio que es extraido del Bluray.


Tiene TRI AUDIO, Español Latino, Español (coñete) e Inglés...






Espero que la disfruten.... 





ATMOSFERA CERO

(OUTLAND)

1981









SINOPSIS



Atmósfera cero (Outland) es una película británica de 1981 de los géneros de suspense y ciencia ficción con guion y dirección de Peter Hyams, y con actuación de Sean ConneryPeter BoyleKika Markham y Frances Sternhagen.

El argumento de Atmósfera cero tiene muchas similitudes con el de la película del género western High Noon, ya que la situación de soledad del protagonista frente al peligro que llega (los dos sicarios) es la misma que vive el sheriff Will Kane. Como en el western con el que se la compara, en la película Atmósfera cero el tiempo es un elemento esencial de la narración: el personaje encarnado por Sean Connery vive intensamente las horas que faltan para la llegada del transbordador, como le ocurre al de Gary Cooper con la del tren.                                                             


                                                                                                                                 (Tomado de Wikipedia)





MEDIA INFO


Esa es la ficha técnica sacada de la película, se informa formato, peso, calidad, duración, Bit rate y demás datos que son necesarios para conocer la calidad real de la misma, para aquellos siempre solicitan datos puntuales, se toma una como referencia, las demás están con la misma calidad:



General

Format                                   : Matroska
Format version                           : Version 4 / Version 2
File size                                : 2.53 GiB
Duration                                 : 1h 49mn
Overall bit rate                         : 3 309 Kbps
Encoded date                             : UTC 2016-04-13 18:34:10
Writing application                      : mkvmerge v6.3.0 ('You can't stop me!') built on Jun 28 2013 20:09:41
Writing library                          : libebml v1.3.0 + libmatroska v1.4.0

Video
ID                                       : 1
Format                                   : AVC
Format/Info                              : Advanced Video Codec
Format profile                           : [email protected]
Format settings, CABAC                   : Yes
Format settings, ReFrames                : 4 frames
Codec ID                                 : V_MPEG4/ISO/AVC
Duration                                 : 1h 49mn
Bit rate                                 : 2 550 Kbps
Width                                    : 1 920 pixels
Height                                   : 800 pixels
Display aspect ratio                     : 2.40:1
Frame rate mode                          : Constant
Frame rate                               : 23.976 fps
Color space                              : YUV
Chroma subsampling                       : 4:2:0
Bit depth                                : 8 bits
Scan type                                : Progressive
Bits/(Pixel*Frame)                       : 0.069
Stream size                              : 1.89 GiB (75%)
Writing library                          : x264 core 129 r2245 bc13772
Language                                 : English
Default                                  : Yes
Forced                                   : No

Audio #1
ID                                       : 2
Format                                   : AC-3
Format/Info                              : Audio Coding 3
Mode extension                           : CM (complete main)
Format settings, Endianness              : Big
Codec ID                                 : A_AC3
Duration                                 : 1h 49mn
Bit rate mode                            : Constant
Bit rate                                 : 192 Kbps
Channel(s)                               : 1 channel
Channel positions                        : Front: C
Sampling rate                            : 48.0 KHz
Bit depth                                : 16 bits
Compression mode                         : Lossy
Stream size                              : 150 MiB (6%)
Title                                    : Español LATINO
Language                                 : Spanish
Default                                  : No
Forced                                   : Yes

Audio #2
ID                                       : 3
Format                                   : AC-3
Format/Info                              : Audio Coding 3
Format profile                           : Dolby Digital
Mode extension                           : CM (complete main)
Format settings, Endianness              : Big
Codec ID                                 : A_AC3
Duration                                 : 1h 49mn
Bit rate mode                            : Constant
Bit rate                                 : 192 Kbps
Channel(s)                               : 2 channels
Channel positions                        : Front: L R
Sampling rate                            : 48.0 KHz
Bit depth                                : 16 bits
Compression mode                         : Lossy
Stream size                              : 150 MiB (6%)
Title                                    : Español
Language                                 : Spanish
Default                                  : No
Forced                                   : No

Audio #3
ID                                       : 4
Format                                   : AC-3
Format/Info                              : Audio Coding 3
Mode extension                           : CM (complete main)
Format settings, Endianness              : Big
Codec ID                                 : A_AC3
Duration                                 : 1h 49mn
Bit rate mode                            : Constant
Bit rate                                 : 384 Kbps
Channel(s)                               : 6 channels
Channel positions                        : Front: L C R, Side: L R, LFE
Sampling rate                            : 48.0 KHz
Bit depth                                : 16 bits
Compression mode                         : Lossy
Delay relative to video                  : 800ms
Stream size                              : 300 MiB (12%)
Title                                    : Inglés
Language                                 : English
Default                                  : No
Forced                                   : No

Text #1
ID                                       : 5
Format                                   : UTF-8
Codec ID                                 : S_TEXT/UTF8
Codec ID/Info                            : UTF-8 Plain Text
Title                                    : Español
Language                                 : Spanish
Default                                  : No
Forced                                   : No

Text #2
ID                                       : 6
Format                                   : PGS
Muxing mode                              : zlib
Codec ID                                 : S_HDMV/PGS
Codec ID/Info                            : The same subtitle format used on BDs/HD-DVDs
Title                                    : Español Latino
Language                                 : Spanish
Default                                  : No
Forced                                   : No

Text #3
ID                                       : 7
Format                                   : PGS
Muxing mode                              : zlib
Codec ID                                 : S_HDMV/PGS
Codec ID/Info                            : The same subtitle format used on BDs/HD-DVDs
Default                                  : No
Forced                                   : No

Text #4
ID                                       : 8
Format                                   : UTF-8
Codec ID                                 : S_TEXT/UTF8
Codec ID/Info                            : UTF-8 Plain Text
Title                                    : Inglés
Language                                 : English
Default                                  : No
Forced                                   : No




CAPTURAS


Quiero aclarar que todas las capturas son propias, sacadas directamente de las películas, para que haya mejor claridad sobre el material a descargar




























LINK DE DESCARGA



Bueno, lo dejaré solo para descarga con el JDownloader esperando que duren los link.










                                  CONTRASEÑA


                               TEKKEN007







Para mi, mas que los puntos, lo 


importante son sus comentarios 


para poder mejorar, con un 


gracias es suficiente..













Outland (1981)-1080p- Latino - Exclusivo Identi -
110 Puntos Score: 10/10
Visitas: 2204 Favoritos: 5
Ver los usuarios que votaron...
22 Comentarios Outland (1981)-1080p- Latino - Exclusivo Identi -
@tekken007 hola amigo ten?
@tekken007 me gustar?
@Tekken007 EXELENTE AMIGO PERO LA PODRIAS RESUBIR EN LA VERSION 720P UN POCO MAS LIGERA
@bonanott uy amigo.. no tengo esas que me nombras...

@dj_cabo no tengo esa versi?
yo tengo la de  the postman con kevin costner en latino la compre en itunes e intentado grabar la pantalla para sacarla de itunes pero se traba mucho ono responde el reroductor que me recomiendan para poder compartirla y hay mismo tengo la de tip cup en latino
No la tengo en mi coleccion de pelis del espacio, se ve buena, gracias!!
No me suena la peliculas pero me gustan los clasicos saludos
como me gustan los protagonistas en situacion de soledad, espero qeu este buena  
Excelente idea la de subir Outland (Atm?
Gracias Sensei........
muchisimas Gracias man, excelente tambien por la info tecnica.
Gran aporte, muchas gracias.  
@bonanott la de the postman yo la encontre en latino y en mega en locopelis
@Sabat ya la tengo la consegu?
Para dejar un comentario Registrate! o.. eres ya usuario? Accede!