El Resplandor (1980) - 1080p - Dual - Mega - 3 Gb





Hola amigos de Identi...  Les dejo un súper clásico... su nombre lo dice todo...




Espero que la disfruten.... 





EL RESPLANDOR

(THE SHINING)

1980









SINOPSIS



El resplandor (The Shining) es una película estadounidense de 1980 del subgénero de terror psicológico, producida y dirigida por Stanley Kubrick y protagonizada por Jack NicholsonShelley DuvallDanny Lloyd y Scatman Crothers. Está basada en lanovela homónima del escritor Stephen King, publicada en 1977, aunque la novela y la película difieren en varios aspectos.
La película relata la historia de Jack Torrance, un escritor ex-alcohólico, que acepta un puesto como vigilante de invierno en un solitario hotel de alta montaña al que se traslada con su familia. Una vez allí, empieza a sufrir inquietantes trastornos de personalidad. Paulatinamente, debido a la incomunicación, al insomnio, a sus propios fantasmas interiores y, tal vez, a la influencia maléfica del lugar, se verá inmerso en una espiral de violencia contra su mujer y su hijo, que a su vez parecen víctimas de espantosos fenómenos sobrenaturales.
Como en otras películas del cineasta estadounidense, en paralelo con la línea dramática principal se desarrollan otras tramas secundarias que a su vez esconden innumerables representaciones simbólicas, indicios subliminales, referencias sociohistóricas e indagaciones de índole psicológica en torno a la naturaleza humana y el mal. Si bien su estreno fue acogido con frialdad por la crítica, El resplandor ha ido ganando adeptos con el tiempo hasta convertirse en una película de culto, e incluso ha llegado a ser considerada una de las mejores películas de la historia del cine. El director Martin Scorsese la considera una de las 11 mayores películas de terror de todos los tiempos.[sup]2[/sup] Críticos de cine, estudiantes de cinematografía y el productor Jan Harlan, cuñado de Kubrick, han resaltado la enorme influencia que ha tenido la película en la cultura popular.[sup]3[/sup]4[/sup][sup]5[/sup]




                                                                                                                            (Tomado de Wikipedia)



MEDIA INFO


Esa es la ficha técnica sacada de la película, se informa formato, peso, calidad, duración, Bit rate y demás datos que son necesarios para conocer la calidad real de la misma, para aquellos siempre solicitan datos puntuales, se toma una como referencia, las demás están con la misma calidad:


General

Format                                   : Matroska
Format version                           : Version 4 / Version 2
File size                                : 3.90 GiB
Duration                                 : 2h 23mn
Overall bit rate                         : 3 888 Kbps
Encoded date                             : UTC 2015-05-02 03:10:48
Writing application                      : mkvmerge v7.7.0 ('Six Voices') 64bit built on Feb 28 2015 23:39:33
Writing library                          : libebml v1.3.1 + libmatroska v1.4.2
DURATION                                 : 02:20:32.632000000
NUMBER_OF_FRAMES                         : 3045
NUMBER_OF_BYTES                          : 11367621
_STATISTICS_WRITING_APP                  : mkvmerge v7.7.0 ('Six Voices') 64bit built on Feb 28 2015 23:39:33
_STATISTICS_WRITING_DATE_UTC             : 2015-05-02 03:10:48
_STATISTICS_TAGS                         : BPS DURATION NUMBER_OF_FRAMES NUMBER_OF_BYTES

Video
ID                                       : 1
Format                                   : AVC
Format/Info                              : Advanced Video Codec
Format profile                           : [email protected]
Format settings, CABAC                   : Yes
Format settings, ReFrames                : 4 frames
Codec ID                                 : V_MPEG4/ISO/AVC
Duration                                 : 2h 23mn
Bit rate                                 : 3 000 Kbps
Width                                    : 1 920 pixels
Height                                   : 1 080 pixels
Display aspect ratio                     : 16:9
Frame rate mode                          : Constant
Frame rate                               : 23.976 fps
Color space                              : YUV
Chroma subsampling                       : 4:2:0
Bit depth                                : 8 bits
Scan type                                : Progressive
Bits/(Pixel*Frame)                       : 0.060
Stream size                              : 2.93 GiB (75%)
Writing library                          : x264 core 130 r2273 b3065e6
Default                                  : Yes
Forced                                   : No
Color primaries                          : BT.709
Transfer characteristics                 : BT.709
Matrix coefficients                      : BT.709

Audio #1
ID                                       : 2
Format                                   : AC-3
Format/Info                              : Audio Coding 3
Mode extension                           : CM (complete main)
Format settings, Endianness              : Big
Codec ID                                 : A_AC3
Duration                                 : 2h 23mn
Bit rate mode                            : Constant
Bit rate                                 : 448 Kbps
Channel(s)                               : 6 channels
Channel positions                        : Front: L C R, Side: L R, LFE
Sampling rate                            : 48.0 KHz
Bit depth                                : 16 bits
Compression mode                         : Lossy
Stream size                              : 461 MiB (12%)
Title                                    : Español Latino
Language                                 : Spanish
Default                                  : Yes
Forced                                   : No

Audio #2
ID                                       : 3
Format                                   : AC-3
Format/Info                              : Audio Coding 3
Mode extension                           : CM (complete main)
Format settings, Endianness              : Big
Codec ID                                 : A_AC3
Duration                                 : 2h 23mn
Bit rate mode                            : Constant
Bit rate                                 : 448 Kbps
Channel(s)                               : 6 channels
Channel positions                        : Front: L C R, Side: L R, LFE
Sampling rate                            : 48.0 KHz
Bit depth                                : 16 bits
Compression mode                         : Lossy
Stream size                              : 461 MiB (12%)
Title                                    : Inglés
Language                                 : English
Default                                  : No
Forced                                   : No

Text #1
ID                                       : 4
Format                                   : PGS
Muxing mode                              : zlib
Codec ID                                 : S_HDMV/PGS
Codec ID/Info                            : The same subtitle format used on BDs/HD-DVDs
Title                                    : Español
Language                                 : Spanish
Default                                  : No
Forced                                   : No

Text #2
ID                                       : 5
Format                                   : PGS
Muxing mode                              : zlib
Codec ID                                 : S_HDMV/PGS
Codec ID/Info                            : The same subtitle format used on BDs/HD-DVDs
Title                                    : Inglés
Language                                 : English
Default                                  : No
Forced                                   : No








CAPTURAS


Quiero aclarar que todas las capturas son propias, sacadas directamente de las películas, para que haya mejor claridad sobre el material a descargar



 







































LINK DE DESCARGA



Bueno, lo dejaré solo para descarga con el JDownloader esperando que duren los link.











                             CONTRASEÑA


                          TEKKEN007







Para mi, mas que los puntos, lo 


importante son sus comentarios 


para poder mejorar, con un 


gracias es suficiente..













El Resplandor (1980) - 1080p - Dual - Mega - 3 Gb
85 Puntos Score: 8.5/10
Visitas: 1805 Favoritos: 3
Ver los usuarios que votaron...
9 Comentarios El Resplandor (1980) - 1080p - Dual - Mega - 3 Gb
De lujo, ya la vi, pero volverla a ver siempre es un deleite, gracias.
Espectacular! muchisimas gracias por compartir ! van +10  
Gracias, todo un clasico  
Muchas Gracias.  
Gracias Totales por compartir!!!
@Tekken007 GRACIAS Perry , me declaro culpable de no haber visto nunca esta peli, pero ahora me la llevo para verla : )
Para dejar un comentario Registrate! o.. eres ya usuario? Accede!