roooooooh
"NitrowOw |CR7 El Mejor| D$ G$"

San Andreas 1080p Calidad=BD50 x265 NitrowOw

San Andreas 1080p Calidad=BD50 x265 NitrowOw





La falla de San Andrés acaba cediendo ante las temibles fuerzas telúricas y desencadena un terremoto de magnitud 9 en California. Ante tal catástrofe, el piloto de helicóptero de búsqueda y rescate Ray (Dwayne Johnson) y su ex esposa Emma (Carla Gugino) viajan juntos desde Los Ángeles hasta San Francisco para salvar a su única hija, Blake (Alexandra Daddario). Pero su tortuoso viaje hacia el norte solamente es el comienzo del desomoronamiento de todo lo que creían firme en su verdad.ida.
Format                      : Matroska
Format version              : Version 4 / Version 2
File size                   : 3.48 GiB
Duration                    : 1h 54mn
Overall bit rate            : 4 354 Kbps
Movie name                  : San Andreas x Rooh
Encoded date                : UTC 2016-02-01 01:15:36 / UTC 
Writing application         : mkvmerge v8.4.0 ('A better way to fly') 64bit
Writing library             : libebml v1.3.1 + libmatroska v1.4.2 / Lavf55.12.0

Video
ID                          : 1
Format                      : HEVC
Format/Info                 : High Efficiency Video Coding
Format profile              : [email protected]@Main
Codec ID                    : V_MPEGH/ISO/HEVC
Duration                    : 1h 54mn
Bit rate                    : 3 179 Kbps
Width                       : 1 920 pixels
Height                      : 1 080 pixels
Display aspect ratio        : 16:9
Frame rate mode             : Constant
Frame rate                  : 23.976 (24000/1001) fps
Color space                 : YUV
Chroma subsampling          : 4:2:0
Bit depth                   : 8 bits
Bits/(Pixel*Frame)          : 0.064
Stream size                 : 2.54 GiB (73%)
Title                       : San Andreas x Rooh
Audio #1
ID                          : 2
Format                      : AC-3
Format/Info                 : Audio Coding 3
Mode extension              : CM (complete main)
Format settings, Endianness : Big
Codec ID                    : A_AC3
Duration                    : 1h 54mn
Bit rate mode               : Constant
Bit rate                    : 640 Kbps
Channel(s)                  : 6 channels
Channel positions           : Front: L C R, Side: L R, LFE
Sampling rate               : 48.0 KHz
Frame rate                  : 31.250 fps (1536 spf)
Compression mode            : Lossy
Delay relative to video     : -83ms
Stream size                 : 524 MiB (15%)
Title                       : Ingles x Rooh
Language                    : English
Default                     : No
Forced                      : No
Statistics Tags Issue       : mkvmerge v8.4.0 ('A better way to fly') 64bit 2016-02-01 01:15:36 / mkvmerge v8.4.0 ('A better way to fly') 64bit 2016-02-01 01:15:36 / UTC 
FromStats_BitRate           : 640000
FromStats_Duration          : 01:54:28.544000000
FromStats_FrameCount        : 214642
FromStats_StreamSize        : 549483520

Audio #2
ID                          : 3
Format                      : AC-3
Format/Info                 : Audio Coding 3
Mode extension              : CM (complete main)
Format settings, Endianness : Big
Codec ID                    : A_AC3
Duration                    : 1h 54mn
Bit rate mode               : Constant
Bit rate                    : 448 Kbps
Channel(s)                  : 6 channels
Channel positions           : Front: L C R, Side: L R, LFE
Sampling rate               : 48.0 KHz
Frame rate                  : 31.250 fps (1536 spf)
Compression mode            : Lossy
Delay relative to video     : -83ms
Stream size                 : 367 MiB (10%)
Title                       : Latino x Rooh
Language                    : Spanish
Default                     : Yes
Forced                      : Yes
Statistics Tags Issue       : mkvmerge v8.4.0 ('A better way to fly') 64bit 2016-02-01 01:15:36 / mkvmerge v8.4.0 ('A better way to fly') 64bit 2016-02-01 01:15:36 / UTC 
FromStats_BitRate           : 448000
FromStats_Duration          : 01:54:28.640000000
FromStats_FrameCount        : 214645
FromStats_StreamSize        : 384643840

Text #1
ID                          : 4
Format                      : PGS
Codec ID                    : S_HDMV/PGS
Codec ID/Info               : Picture based subtitle format used on BDs/HD-DVDs
Title                       : Ingles x Rooh
Language                    : English
Default                     : No
Forced                      : No
Statistics Tags Issue       : mkvmerge v8.4.0 ('A better way to fly') 64bit 2016-02-01 01:15:36 / mkvmerge v8.4.0 ('A better way to fly') 64bit 2016-02-01 01:15:36 / UTC 
FromStats_BitRate           : 29358
FromStats_Duration          : 01:52:51.806000000
FromStats_FrameCount        : 2978
FromStats_StreamSize        : 24850926

Text #2
ID                          : 5
Format                      : PGS
Codec ID                    : S_HDMV/PGS
Codec ID/Info               : Picture based subtitle format used on BDs/HD-DVDs
Title                       : Frances x Roooh
Language                    : French
Default                     : No
Forced                      : No
Statistics Tags Issue       : mkvmerge v8.4.0 ('A better way to fly') 64bit 2016-02-01 01:15:36 / mkvmerge v8.4.0 ('A better way to fly') 64bit 2016-02-01 01:15:36 / UTC 
FromStats_BitRate           : 18459
FromStats_Duration          : 01:53:00.482000000
FromStats_FrameCount        : 1982
FromStats_StreamSize        : 15645144

Text #3
ID                          : 6
Format                      : PGS
Codec ID                    : S_HDMV/PGS
Codec ID/Info               : Picture based subtitle format used on BDs/HD-DVDs
Title                       : Español x Roooh
Language                    : Spanish
Default                     : No
Forced                      : No
Statistics Tags Issue       : mkvmerge v8.4.0 ('A better way to fly') 64bit 2016-02-01 01:15:36 / mkvmerge v8.4.0 ('A better way to fly') 64bit 2016-02-01 01:15:36 / UTC 
FromStats_BitRate           : 24351
FromStats_Duration          : 01:53:16.623000000
FromStats_FrameCount        : 2500
FromStats_StreamSize        : 20688826






Nitrowow


Batman Vs Superman x265 Dual HDTS



Frozen 1080p Calidad=BD50 x265




El Rey Leon 1080p Calidad=BD50 x265




San Andreas 1080p Calidad=BD50 x265 NitrowOw
20 Puntos Score: 10/10
Visitas: 2513 Favoritos: 3
Ver los usuarios que votaron...
5 Comentarios San Andreas 1080p Calidad=BD50 x265 NitrowOw
La tenia en x264 y con el mismo peso, la prefiero en x265, que se ve genial, gracias!!
links 4-5-6 no descarga
lo unico bueno de esa peli es Alexandra Daddario, q bella  
el Bitrate es variable o constante?
@Ser69 @carlosxbox @watuso @niko_11_68 Muchas gracias x Comentar   Andan todos los links y esta encodeado con crf 20 SAludos!!!
Para dejar un comentario Registrate! o.. eres ya usuario? Accede!