roooooooh
"NitrowOw |CR7 El Mejor| D$ G$"

Frozen 1080p Calidad=BD50 x265 NitrowOw

Exclusivo Identi|Frozen 1080p Calidad =BD50 x265 NitrowOw






Cuando una profecía condena a un reino a vivir un invierno eterno, la joven Anna, el temerario montañero Kristoff y el reno Sven emprenden un viaje épico en busca de Elsa, hermana de Anna y Reina de las Nieves, para poner fin al gélido hechizo. Adaptación libre del cuento "La reina de las nieves".
Format                      : Matroska
Format version              : Version 4 / Version 2
File size                   : 2.54 GiB
Duration                    : 1h 41mn
Overall bit rate            : 3 580 Kbps
Encoded date                : UTC 2016-03-02 12:01:12 / UTC 2016-03-01T10:52:25Z
Writing application         : mkvmerge v8.4.0 ('A better way to fly') 64bit
Writing library             : libebml v1.3.1 + libmatroska v1.4.2 / Lavf55.12.0

Video
ID                          : 1
Format                      : HEVC
Format/Info                 : High Efficiency Video Coding
Format profile              : [email protected]@Main
Codec ID                    : V_MPEGH/ISO/HEVC
Duration                    : 1h 41mn
Bit rate                    : 2 421 Kbps
Width                       : 1 920 pixels
Height                      : 856 pixels
Display aspect ratio        : 2.25:1
Frame rate mode             : Constant
Frame rate                  : 23.976 (24000/1001) fps
Color space                 : YUV
Chroma subsampling          : 4:2:0
Bit depth                   : 8 bits
Bits/(Pixel*Frame)          : 0.061
Stream size                 : 1.72 GiB (68%)
Title                       : Rooooh
Writing library             : x265 1.9:[Windows][GCC 4.9.0][64 bit] 8bit

Audio #1
ID                          : 2
Format                      : AC-3
Format/Info                 : Audio Coding 3
Mode extension              : CM (complete main)
Format settings, Endianness : Big
Codec ID                    : A_AC3
Duration                    : 1h 41mn
Bit rate mode               : Constant
Bit rate                    : 448 Kbps
Channel(s)                  : 6 channels
Channel positions           : Front: L C R, Side: L R, LFE
Sampling rate               : 48.0 KHz
Frame rate                  : 31.250 fps (1536 spf)
Compression mode            : Lossy
Delay relative to video     : -83ms
Stream size                 : 325 MiB (13%)
Title                       : Ingles
Language                    : English
Default                     : No
Forced                      : No
Statistics Tags Issue       : mkvmerge v8.4.0 ('A better way to fly') 64bit 2016-03-02 12:01:12 / mkvmerge v8.4.0 ('A better way to fly') 64bit 2016-03-02 12:01:12 / UTC 2016-03-01T10:52:25Z
FromStats_BitRate           : 448000
FromStats_Duration          : 01:41:29.632000000
FromStats_FrameCount        : 190301
FromStats_StreamSize        : 341019392

Audio #2
ID                          : 3
Format                      : AC-3
Format/Info                 : Audio Coding 3
Mode extension              : CM (complete main)
Format settings, Endianness : Big
Codec ID                    : A_AC3
Duration                    : 1h 41mn
Bit rate mode               : Constant
Bit rate                    : 640 Kbps
Channel(s)                  : 6 channels
Channel positions           : Front: L C R, Side: L R, LFE
Sampling rate               : 48.0 KHz
Frame rate                  : 31.250 fps (1536 spf)
Compression mode            : Lossy
Delay relative to video     : -83ms
Stream size                 : 465 MiB (18%)
Title                       : Latino
Language                    : Spanish
Default                     : Yes
Forced                      : Yes
Statistics Tags Issue       : mkvmerge v8.4.0 ('A better way to fly') 64bit 2016-03-02 12:01:12 / mkvmerge v8.4.0 ('A better way to fly') 64bit 2016-03-02 12:01:12 / UTC 2016-03-01T10:52:25Z
FromStats_BitRate           : 640000
FromStats_Duration          : 01:41:29.696000000
FromStats_FrameCount        : 190303
FromStats_StreamSize        : 487175680

Text #1
ID                          : 4
Format                      : PGS
Codec ID                    : S_HDMV/PGS
Codec ID/Info               : Picture based subtitle format used on BDs/HD-DVDs
Language                    : English
Default                     : No
Forced                      : No
Statistics Tags Issue       : mkvmerge v8.4.0 ('A better way to fly') 64bit 2016-03-02 12:01:12 / mkvmerge v8.4.0 ('A better way to fly') 64bit 2016-03-02 12:01:12 / UTC 2016-03-01T10:52:25Z
FromStats_BitRate           : 41797
FromStats_Duration          : 01:39:12.218000000
FromStats_FrameCount        : 2736
FromStats_StreamSize        : 31098842

Text #2
ID                          : 5
Format                      : PGS
Codec ID                    : S_HDMV/PGS
Codec ID/Info               : Picture based subtitle format used on BDs/HD-DVDs
Language                    : English
Default                     : No
Forced                      : No
Statistics Tags Issue       : mkvmerge v8.4.0 ('A better way to fly') 64bit 2016-03-02 12:01:12 / mkvmerge v8.4.0 ('A better way to fly') 64bit 2016-03-02 12:01:12 / UTC 2016-03-01T10:52:25Z
FromStats_BitRate           : 161577
FromStats_Duration          : 00:17:21.803000000
FromStats_FrameCount        : 370
FromStats_StreamSize        : 21041465

Text #3
ID                          : 6
Format                      : PGS
Codec ID                    : S_HDMV/PGS
Codec ID/Info               : Picture based subtitle format used on BDs/HD-DVDs
Language                    : French
Default                     : No
Forced                      : No
Statistics Tags Issue       : mkvmerge v8.4.0 ('A better way to fly') 64bit 2016-03-02 12:01:12 / mkvmerge v8.4.0 ('A better way to fly') 64bit 2016-03-02 12:01:12 / UTC 2016-03-01T10:52:25Z
FromStats_BitRate           : 37173
FromStats_Duration          : 01:32:40.618000000
FromStats_FrameCount        : 2709
FromStats_StreamSize        : 25838704

Text #4
ID                          : 7
Format                      : PGS
Codec ID                    : S_HDMV/PGS
Codec ID/Info               : Picture based subtitle format used on BDs/HD-DVDs
Language                    : Spanish
Default                     : No
Forced                      : No
Statistics Tags Issue       : mkvmerge v8.4.0 ('A better way to fly') 64bit 2016-03-02 12:01:12 / mkvmerge v8.4.0 ('A better way to fly') 64bit 2016-03-02 12:01:12 / UTC 2016-03-01T10:52:25Z
FromStats_BitRate           : 37339
FromStats_Duration          : 01:32:40.618000000
FromStats_FrameCount        : 2922
FromStats_StreamSize        : 25953509







Nitrowow





Mis Aportes!!!!!

EL Rey Leon 1080p Dual Calidad BD50 x265

Batman Vs Superman HD-Ts Dual x265
Frozen 1080p Calidad=BD50 x265 NitrowOw
31 Puntos Score: 7.8/10
Visitas: 4202 Favoritos: 4
Ver los usuarios que votaron...
16 Comentarios Frozen 1080p Calidad=BD50 x265 NitrowOw
amigo cuanto pesa?
@Zulander en la info esta pesa 2.54 Gb se ve de 10!!
Pesa 2. 54GB pero en el t?
@Zulander de naada !!
@Tortuga3 Calidad BD50 x265 , osea q la fuente original es el bd50 ripeado x265 q qda casi un 90% igual al bd original , a eso me refiero con bd50x265
Creo que conocemos de diferente forma a los  BD50 y los BRRip.
Width                       : 1 920 pixels
Height                      : 856 pixels



1080?
@ancestral1 si le sake las franjas negras q tenia x eso 856
@Tortuga3 no me entendiste o t explique mal , kiero decir q calidad de BD50 , obiamente en un ripeo
Es un BRrip y no BD50 ( )...   se agradece el esfuerzo (pero si deberias corregir lo de BD50, que uno se va con la finta). Saludos.
eso no es un BD50 pero gracias
Ya dijo qeu no es BD50, sino un rip. Arriba dice Claro. Calidad=BD50. No le hagan repetir algo que ya explico bien y que ademas esta muy claro en el titulo. Gracias por el aporte @roooooooh
amigo disculpa por que no subes esos aportes por Mega o Openload Gracias y disculpa
@Vamplayer @eiffelx182 @niko_11_68  gracias x comentar y x los puntos !! saludos   !!
@chidan esta en  mega  
Priemero que nada, gracias por compartir! y bueno vamos a ver que onda, si no se ve como un BD50 te quito los puntos >:V jajajaj na mentira, ya tienes +10 de mi parte Vamos a ver como se ve. Segun se un x265 ocupa la mitad que un h264 y se igual a este ultimo, osea que si el tuyo pesa 2,45 equivaldria a un h264 de 5gb o algo asi me han dicho. Saludos!
Amigo, puedes ripear con este codec y en esta Calidad 2 Peliculas Argentinas muy buenas. El Clan y El Secreto de sus Ojos. Por Favor. Gracias...
buena peli subida a .265 la mejor manera de encodear ahora
Para dejar un comentario Registrate! o.. eres ya usuario? Accede!