educap
"Por qué algo y no más bien nada?"

1946-Canción del sur [Disney]-VHSrip-Mega-Exclusiv

1946-Canción del sur










General

Format                                   : MPEG-4
Format profile                           : Base Media
Codec ID                                 : isom
File size                                : 900 MiB
Duration                                 : 1h 33mn
Overall bit rate mode                    : Variable
Overall bit rate                         : 1 353 Kbps

Video
ID                                       : 1
Format                                   : MPEG-4 Visual
Format profile                           : [email protected]
Format settings, BVOP                    : No
Format settings, QPel                    : No
Format settings, GMC                     : No warppoints
Format settings, Matrix                  : Default (H.263)
Codec ID                                 : 20
Duration                                 : 1h 33mn
Bit rate                                 : 1 220 Kbps
Width                                    : 320 pixels
Height                                   : 240 pixels
Display aspect ratio                     : 4:3
Frame rate mode                          : Constant
Frame rate                               : 25.000 fps
Color space                              : YUV
Chroma subsampling                       : 4:2:0
Bit depth                                : 8 bits
Scan type                                : Progressive
Compression mode                         : Lossy
Bits/(Pixel*Frame)                       : 0.636
Stream size                              : 812 MiB (90%)

Audio
ID                                       : 2
Format                                   : AAC
Format/Info                              : Advanced Audio Codec
Format profile                           : LC
Codec ID                                 : 40
Duration                                 : 1h 33mn
Bit rate mode                            : Variable
Bit rate                                 : 128 Kbps
Channel(s)                               : 2 channels
Channel positions                        : Front: L R
Sampling rate                            : 44.1 KHz
Compression mode                         : Lossy
Stream size                              : 85.2 MiB (9%)



Hola, no suelo ripear videos para subir, pero en este caso hice excepcion porque la peli es dificil de conseguir.
Saludos
Ah, le dejé las propagandas que solian traer los VHS antes de empezar la movie, para mantener el espiritu de antaño XD












http://noref.li/index.php?v=3417



educap
1946-Canción del sur [Disney]-VHSrip-Mega-Exclusiv
175 Puntos Score: 9.2/10
Visitas: 1718 Favoritos: 1
Ver los usuarios que votaron...
23 Comentarios 1946-Canción del sur [Disney]-VHSrip-Mega-Exclusiv
Es un clasico bien dificil de encontrar pero te cuento que yo consegu?
@olwing hola, si, me habia fijado si ya estaba en identi y habia un post con enlaces caidos, y en la web la verdad es a primera vista no esta, ni en youtube
@olwing se me escapo el comentario antes de terminar: si la peli es con el mismo audio, cosa que estoy seguro que es el mismo, no la voy a descargar, pero si decis que el audio es diferente podria agregarla...
capo,buen aporte! ahi te va un 10go,salu2!
@carlosja gracias carlos @D4NILO gracias daniel  
@educap tanto audio coo video estan excelentes, no creo haberla bajado de identi porque esta en ingles sino estoy equivocado el video es de torrent de un dvdrip y el audio es de edonkey porque tiene 3 pistas de audio una en ingles y dos en espa?
@olwing a ver cuando puedas  pasamela si queres  
@educap listo ya te envie el link por pm, me avisas al bajarlo para darle de baja y tu la resubas a mega y la compartas con los demas que les interese por aca
muy tierna historia gracias
Muchas Gracias amigo por el aporte  
@gpuchet gracias puchet @Taykun7000 gracias taykun
Gracias, bajando...
@rponceb gracias amigo por pasar  
Gracia amigo por compartir. Un fraternal saludo.
@luterosi gracias hermano bendiciones
clasico......................... tremendo aporte
@treun estan online... me figuran bien
Muchas gracias por el aportazo
Por cierto los links estan bien
Gracias por tus palabras a veces se necesita una voz de aliento para reaccionar ojala lo logre adios amigo
Para dejar un comentario Registrate! o.. eres ya usuario? Accede!