roooooooh
"NitrowOw |CR7 El Mejor| D$ G$"
Oops.. Este post tiene los enlaces eliminados!

Identi revisa las denuncias de los usuarios en busca de enlaces eliminados que no dejan descargar los archivos, este mensaje te informa que este post que estas viendo tiene los enlaces eliminados.

Usa el Buscador

Por favor, te recomendamos que uses el buscador para encontrar más alternativas.

Exclusivo Identi|Batman vs Superman|Dual|HDTSx265

  • Categoría: Reciclaje
  • Publicado hace más de 8 meses
?Exclusivo Identi?Batman vs Superman Dual HD-TS x265 La Mejor Version MG








Ante el temor de las acciones que pueda llevar a cabo Superman, el vigilante de Gotham City aparece para poner a raya al superhéroe de Metrópolis, mientras que la opinión pública debate cuál es realmente el héroe que necesitan. El hombre de acero y Batman se sumergen en una contienda territorial, pero las cosas se complican cuando una nueva y peligrosa amenaza surge rápidamente, poniendo en jaque la existencia de la humanidad.   

Format                      : Matroska
Format version              : Version 4 / Version 2
File size                   : 1.29 GiB
Duration                    : 2h 23mn
Overall bit rate            : 1 281 Kbps
Movie name                  : Batman V Superman 2016  Exclusivo x Nitrowow 
Encoded date                : UTC 2016-04-02 13:30:11 / UTC 2016-04-02T01:38:19Z
Writing application         : mkvmerge v8.4.0 ('A better way to fly') 64bit
Writing library             : libebml v1.3.1 + libmatroska v1.4.2 / Lavf55.12.0

Video
ID                          : 1
Format                      : HEVC
Format/Info                 : High Efficiency Video Coding
Format profile              : [email protected]@Main
Codec ID                    : V_MPEGH/ISO/HEVC
Duration                    : 2h 23mn
Bit rate                    : 871 Kbps
Width                       : 720 pixels
Height                      : 400 pixels
Display aspect ratio        : 16:9
Frame rate mode             : Constant
Frame rate                  : 30.000 fps
Color space                 : YUV
Chroma subsampling          : 4:2:0
Bit depth                   : 8 bits
Bits/(Pixel*Frame)          : 0.101
Stream size                 : 897 MiB (68%)
Title                       : Nitrowow
Writing library             : x265 1.9:[Windows][GCC 4.9.0][64 bit] 8bit


Default                     : Yes
Forced                      : Yes
Color range                 : Limited
Color primaries             : BT.601 NTSC
Transfer characteristics    : BT.709
Matrix coefficients         : BT.601
Statistics Tags Issue       : mkvmerge v8.4.0 ('A better way to fly') 64bit 2016-04-02 13:30:11 / mkvmerge v8.4.0 ('A better way to fly') 64bit 2016-04-02 13:30:11 / UTC 2016-04-02T01:38:19Z
FromStats_BitRate           : 855745
FromStats_Duration          : 02:23:55.366000000
FromStats_FrameCount        : 259061
FromStats_StreamSize        : 923709254

Audio #1
ID                          : 2
Format                      : AC-3
Format/Info                 : Audio Coding 3
Mode extension              : CM (complete main)
Format settings, Endianness : Big
Codec ID                    : A_AC3
Duration                    : 2h 23mn
Bit rate mode               : Constant
Bit rate                    : 256 Kbps
Channel(s)                  : 2 channels
Channel positions           : Front: L R
Sampling rate               : 48.0 KHz
Frame rate                  : 31.250 fps (1536 spf)
Compression mode            : Lossy
Delay relative to video     : -41ms
Stream size                 : 264 MiB (20%)
Title                       : Españo Latinol x Nitrowow
Default                     : Yes
Forced                      : Yes
Statistics Tags Issue       : mkvmerge v8.4.0 ('A better way to fly') 64bit 2016-04-02 13:30:11 / mkvmerge v8.4.0 ('A better way to fly') 64bit 2016-04-02 13:30:11 / UTC 2016-04-02T01:38:19Z
FromStats_BitRate           : 256000
FromStats_Duration          : 02:23:34.912000000
FromStats_FrameCount        : 269216
FromStats_StreamSize        : 275677184

Audio #2
ID                          : 3
Format                      : MPEG Audio
Format version              : Version 1
Format profile              : Layer 3
Codec ID                    : A_MPEG/L3
Codec ID/Hint               : MP3
Duration                    : 2h 23mn
Bit rate mode               : Constant
Bit rate                    : 128 Kbps
Channel(s)                  : 2 channels
Sampling rate               : 44.1 KHz
Compression mode            : Lossy
Delay relative to video     : -58ms
Stream size                 : 132 MiB (10%)
Title                       : Ingles x Nitrowow
Default                     : No
Forced                      : No
Statistics Tags Issue       : mkvmerge v8.4.0 ('A better way to fly') 64bit 2016-04-02 13:30:11 / mkvmerge v8.4.0 ('A better way to fly') 64bit 2016-04-02 13:30:11 / UTC 2016-04-02T01:38:19Z
FromStats_BitRate           : 128000
FromStats_Duration          : 02:23:55.428000000
FromStats_FrameCount        : 330575
FromStats_StreamSize        : 138166857

Text #1
ID                          : 4
Format                      : UTF-8
Codec ID                    : S_TEXT/UTF8
Codec ID/Info               : UTF-8 Plain Text
Title                       : Sub Español  x Nitrowow
Default                     : No
Forced                      : No
Statistics Tags Issue       : mkvmerge v8.4.0 ('A better way to fly') 64bit 2016-04-02 13:30:11 / mkvmerge v8.4.0 ('A better way to fly') 64bit 2016-04-02 13:30:11 / UTC 2016-04-02T01:38:19Z
FromStats_BitRate           : 44
FromStats_Duration          : 02:21:44.950000000
FromStats_FrameCount        : 1210
FromStats_StreamSize        : 46875

Text #2
ID                          : 5
Format                      : PGS
Codec ID                    : S_HDMV/PGS
Codec ID/Info               : Picture based subtitle format used on BDs/HD-DVDs
Title                       : PGS Español  x Nitrowow  Exclusivo
Default                     : No
Forced                      : No
Statistics Tags Issue       : mkvmerge v8.4.0 ('A better way to fly') 64bit 2016-04-02 13:30:11 / mkvmerge v8.4.0 ('A better way to fly') 64bit 2016-04-02 13:30:11 / UTC 2016-04-02T01:38:19Z
FromStats_BitRate           : 39734
FromStats_Duration          : 02:21:48.717000000
FromStats_FrameCount        : 2421
FromStats_StreamSize        : 42261357

Text #3
ID                          : 6
Format                      : UTF-8
Codec ID                    : S_TEXT/UTF8
Codec ID/Info               : UTF-8 Plain Text
Title                       : Nitrowow
Default                     : Yes
Forced                      : Yes
Statistics Tags Issue       : mkvmerge v8.4.0 ('A better way to fly') 64bit 2016-04-02 13:30:11 / mkvmerge v8.4.0 ('A better way to fly') 64bit 2016-04-02 13:30:11 / UTC 2016-04-02T01:38:19Z
FromStats_BitRate           : 81
FromStats_Duration          : 00:00:12.797000000
FromStats_FrameCount        : 1
FromStats_StreamSize        : 131







Comparacion :

Version la mejor  hasta el momento 




Mi Version 




MUY IMPORTANTE!!!!!!!!!!


El Audio Latino y los subtitulos se desfasan  a partir del minuto  1:48:55  , ya q intente arreglarlo pero no me qda bn ya q el audio latino q utilizo tiene ese error.
La Solucion es muy facil  despues de 1:48:55 solo tiene q sincronizar el audio y poner en delay "6,000" ya sea el audio Latino o los subtitulos y listo va a estar todo perfecto. 



Enlaces De Descarga




Nitrowow



Solucion para ver cualquier post !!!!

1ro: Copian el enlace y lo pegan en una nueva ventana de su navegador

Ejemplo:

http://www.identi.li/topic/el-rey-leon-1994-1080p-dual-calidad-bd50-x265-mg

2do :  Solo cambian la barra q esta adelante y atras de "/topic/" por ?topic=

Ejemplo
http://www.identi.li?topic=el-rey-leon-1994-1080p-dual-calidad-bd50-x265-mg

y listo pueden entrar a cualquier post!!
Exclusivo Identi|Batman vs Superman|Dual|HDTSx265
40 Puntos Score: 10/10
Visitas: 1581 Favoritos: 0
Ver los usuarios que votaron...
19 Comentarios Exclusivo Identi|Batman vs Superman|Dual|HDTSx265
x265 no me sirve, pero gracias por el post  
Gracias la voy a ver
Genio! ya mismo la descargo Gracias  
Gracias por el aporte, "IDENTI VIVE"
Vale, gracias a bajar se ha dicho  
Bajando a ver que tal!
En que reproductor arreglaste el delay del sonido?
VLC? MP? GOM?
Se ve genial, voy a bajarla.
@werty.x gracias amigo y reportamos el post por no poner los links directos y poner solo un texto
FllorTV - Administrador - hace más de 8 meses
Aviso: Los link deben de estar en el post o en noref y no se permiten acortadores.
FllorTV - Administrador - hace más de 8 meses
Edita este post
FllorTV - Administrador - hace más de 8 meses
Tienes q editar este, ya q es el unico q post q se ve, no puedes hacer uno nuevo porq te envia a este q hiciste antes y sigue con los links con redirector y tendere q eliminarlo
FllorTV - Administrador - hace más de 8 meses
@roooooooh Ya edite este, el otro te lo elimino ya q es auto-repost.
http://www.identi.li/index.php?action=protocolo
@Fllortv ok pero no aparece en inicio  ninguno d los 2?
FllorTV - Administrador - hace más de 8 meses
@roooooooh Este si aparece, no lo ves?
@Oremor964 @ramatiaz @iLqz @diegonki @epalada @BioMecanic @Stryder gracias a todos x comentar saludos!!
@martymcfly uso el Vlc en la parte de sincronizar.. tmb en el mpc saludos
FllorTV - Administrador - hace más de 8 meses
ya esta, no se q paso, te publique otra vez el nuevo q habias creado, no se porq este no se puede ver... pero bueno, ya quedo.
Para dejar un comentario Registrate! o.. eres ya usuario? Accede!