Bones | Season | 01 a 09 | 480p | x264 | LATINO|LB






La doctora Temperance Brennan (Emily Deschanel) es una excepcional antropóloga forense que trabaja para el instituto Jeffersonian (institución ficticia inspirada en el instituto Smithsoniano), y además es escritora de novelas negras. Generalmente interviene en investigaciones policiales de asesinatos cuando los restos de las víctimas están irreconocibles. Posee una extraordinaria habilidad para descifrar claves ocultas en los cuerpos de las víctimas. Brennan trabaja junto al agente especial Seeley Booth (David Boreanaz) de la unidad de investigaciones de homicidios del FBI. Booth, un agente formado en el ejército, en principio no confía en la ciencia ni en los científicos. Está convencido de que la clave para resolver los crímenes radica en descubrir la verdad a través de aquellos que aún están vivos -testigos y sospechosos- mediante técnicas tradicionales. Por este motivo, chocaba con la doctora Brennan tanto en el terreno profesional como en el personal. Brennan se siente más cómoda trabajando junto a su colega Ángela Montenegro (Michaela Conlin), su mejor amiga y fiel seguidora, quien ha creado un excelente método para representar las escenas del crimen y reconstruir rostros tridimensionalmente. Posteriormente la relación entre ambos protagonistas evoluciona y aprenden a colaborar explotando las habilidades de ambos, convirtiéndose en líderes de un equipo de investigación perfectamente complementado.



Título original: Bones (TV Series)
Año: 2005
Duración: 40 min.
País: Estados Unidos
Director: Hart Hanson (Creator), Ian Toynton, Dwight H. Little, Allan Kroeker, Steven DePaul, Jeff Woolnough, Jesús Salvador Treviño, Tony Wharmby, Chad Lowe, Jeannot Szwarc, Sanford Bookstaver, Craig Ross Jr., David Boreanaz, Greg Yaitanes, Kate Woods, Gordon Lonsdale, Milan Cheylov, Tim Southam, James Whitmore Jr., Scott Lautanen, Allison Liddi, Jessica Landaw, Alex Chapple, Brad Turner, Emile Levisetti, François Velle
Guión: Hart Hanson, Kathy Reichs, Noah Hawley, Elizabeth Benjamin, Pat Charles, Karine Rosenthal, Stephen Nathan, Carla Kettner, Dean Lopata, Michael Peterson, Janet Lin, Josh Berman, Scott Williams, Karyn Usher, Laura Wolner, Christopher Ambrose, Lyla Oliver, Greg Ball, Steve Blackman, Janet Tamaro, Craig Silverstein, Gary Glasberg, Mark Lisson, Karina Csolty
Música: Peter Himmelman, Sean Callery
Fotografía: Gordon Lonsdale, Michael D. O'Shea, Cort Fey, Gregory Paul Collier, Dennis Hall
Reparto: Emily Deschanel, David Boreanaz, Eric Millegan, T.J. Thyne, Michaela Conlin, Jonathan Adams, John Francis Daley, Carla Gallo
Productora: Emitida por la cadena Fox; 20th Century Fox Television / Far Field Productions / Josephson Entertainment
Género: Serie de TV. Intriga | Policíaco
Web oficial: http://www.fox.com/bones/



Bns-T01x01.avi
Format                      : AVI
Format/Info                 : Audio Video Interleave
File size                   : 366 MiB
Duration                    : 44mn 1s
Overall bit rate            : 1 163 Kbps
Writing application         : Lavf52.13.0

Video
ID                          : 0
Format                      : xvid
Codec ID                    : xvid
Duration                    : 44mn 1s
Bit rate                    : 1 023 Kbps
Width                       : 640 pixels
Height                      : 480 pixels
Display aspect ratio        : 4:3
Frame rate                  : 25.000 fps
Bits/(Pixel*Frame)          : 0.133
Stream size                 : 322 MiB (88%)

Audio
ID                          : 1
Format                      : MPEG Audio
Format version              : Version 1
Format profile              : Layer 3
Mode                        : Joint stereo
Codec ID                    : 55
Codec ID/Hint               : MP3
Duration                    : 44mn 1s
Bit rate mode               : Constant
Bit rate                    : 128 Kbps
Channel(s)                  : 2 channels
Sampling rate               : 44.1 KHz
Compression mode            : Lossy
Stream size                 : 40.3 MiB (11%)
Alignment                   : Aligned on interleaves
Interleave, duration        : 26 ms (0.65 video frame)





Password: FerF13

Aclaración 1: Esta en calidad DVDRIP 480P, WEB-DL 720p, audio Español Latino (2.0)

Aclaración 2: Si te robas mis post da credito.

Aclaración 3: Agradecer no cuesta nada, no exijas y pidas gustos cuanto todo es gratis...
Aclaración 4 IMPORTANTE: Como todo mundo sabe LolaBits solo estara online hasta el 31 de Marzo asi que aprovechen.


Bns-T02x01.AVI
Format                      : AVI
Format/Info                 : Audio Video Interleave
File size                   : 357 MiB
Duration                    : 43mn 54s
Overall bit rate            : 1 136 Kbps

Video
ID                          : 0
Format                      : MPEG-4 Visual
Format profile              : [email protected]
Format settings, BVOP       : No
Format settings, QPel       : No
Format settings, GMC        : No warppoints
Format settings, Matrix     : Default (H.263)
Codec ID                    : XVID
Codec ID/Hint               : XviD
Duration                    : 43mn 54s
Bit rate                    : 999 Kbps
Width                       : 720 pixels
Height                      : 480 pixels
Display aspect ratio        : 3:2
Frame rate                  : 29.970 (29970/1000) fps
Standard                    : NTSC
Color space                 : YUV
Chroma subsampling          : 4:2:0
Bit depth                   : 8 bits
Scan type                   : Progressive
Compression mode            : Lossy
Bits/(Pixel*Frame)          : 0.096
Stream size                 : 314 MiB (88%)
Writing library             : ZJMedia MPEG Encoder

Audio
ID                          : 1
Format                      : MPEG Audio
Format version              : Version 1
Format profile              : Layer 3
Mode                        : Joint stereo
Mode extension              : MS Stereo
Codec ID                    : 55
Codec ID/Hint               : MP3
Duration                    : 43mn 54s
Bit rate mode               : Constant
Bit rate                    : 128 Kbps
Channel(s)                  : 2 channels
Sampling rate               : 44.1 KHz
Compression mode            : Lossy
Stream size                 : 40.2 MiB (11%)
Alignment                   : Split accross interleaves
Interleave, duration        : 968 ms (29.00 video frames)





Password: FerF13

Aclaración 1: Esta en calidad DVDRIP 480P, WEB-DL 720p, audio Español Latino (2.0)

Aclaración 2: Si te robas mis post da credito.

Aclaración 3: Agradecer no cuesta nada, no exijas y pidas gustos cuanto todo es gratis...
Aclaración 4 IMPORTANTE: Como todo mundo sabe LolaBits solo estara online hasta el 31 de Marzo asi que aprovechen.
Bns-T03x01.avi
Format                      : AVI
Format/Info                 : Audio Video Interleave
File size                   : 352 MiB
Duration                    : 43mn 48s
Overall bit rate            : 1 123 Kbps

Video
ID                          : 0
Format                      : MPEG-4 Visual
Format profile              : Advanced [email protected]
Format settings, BVOP       : 2
Format settings, QPel       : No
Format settings, GMC        : No warppoints
Format settings, Matrix     : Default (H.263)
Codec ID                    : XVID
Codec ID/Hint               : XviD
Duration                    : 43mn 48s
Bit rate                    : 954 Kbps
Width                       : 624 pixels
Height                      : 352 pixels
Display aspect ratio        : 16:9
Frame rate                  : 23.976 (23976/1000) fps
Color space                 : YUV
Chroma subsampling          : 4:2:0
Bit depth                   : 8 bits
Scan type                   : Progressive
Compression mode            : Lossy
Bits/(Pixel*Frame)          : 0.181
Stream size                 : 299 MiB (85%)
Writing library             : XviD 1.1.2 (UTC 2006-11-01)

Audio
ID                          : 1
Format                      : MPEG Audio
Format version              : Version 1
Format profile              : Layer 3
Mode                        : Joint stereo
Codec ID                    : 55
Codec ID/Hint               : MP3
Duration                    : 43mn 48s
Source duration             : 43mn 48s
Bit rate mode               : Constant
Bit rate                    : 160 Kbps
Channel(s)                  : 2 channels
Sampling rate               : 48.0 KHz
Compression mode            : Lossy
Stream size                 : 50.1 MiB (14%)
Alignment                   : Aligned on interleaves
Interleave, duration        : 42 ms (1.00 video frame)





Password: FerF13

Aclaración 1: Esta en calidad DVDRIP 480P, WEB-DL 720p, audio Español Latino (2.0)

Aclaración 2: Si te robas mis post da credito.

Aclaración 3: Agradecer no cuesta nada, no exijas y pidas gustos cuanto todo es gratis...
Aclaración 4 IMPORTANTE: Como todo mundo sabe LolaBits solo estara online hasta el 31 de Marzo asi que aprovechen.

Bns-T04x01-02.avi
Format                      : AVI
Format/Info                 : Audio Video Interleave
File size                   : 820 MiB
Duration                    : 1h 26mn
Overall bit rate            : 1 327 Kbps

Video
ID                          : 0
Format                      : MPEG-4 Visual
Format profile              : Advanced [email protected]
Format settings, BVOP       : 1
Format settings, QPel       : No
Format settings, GMC        : No warppoints
Format settings, Matrix     : Custom
Codec ID                    : XVID
Codec ID/Hint               : XviD
Duration                    : 1h 26mn
Bit rate                    : 1 190 Kbps
Width                       : 720 pixels
Height                      : 416 pixels
Display aspect ratio        : 1.731
Frame rate                  : 23.976 (23976/1000) fps
Color space                 : YUV
Chroma subsampling          : 4:2:0
Bit depth                   : 8 bits
Scan type                   : Progressive
Compression mode            : Lossy
Bits/(Pixel*Frame)          : 0.166
Stream size                 : 736 MiB (90%)
Writing library             : XviD 63

Audio
ID                          : 1
Format                      : MPEG Audio
Format version              : Version 1
Format profile              : Layer 3
Mode                        : Joint stereo
Mode extension              : MS Stereo
Codec ID                    : 55
Codec ID/Hint               : MP3
Duration                    : 1h 26mn
Source duration             : 1h 26mn
Bit rate mode               : Constant
Bit rate                    : 128 Kbps
Channel(s)                  : 2 channels
Sampling rate               : 48.0 KHz
Compression mode            : Lossy
Stream size                 : 79.1 MiB (10%)
Alignment                   : Aligned on interleaves
Interleave, duration        : 42 ms (1.00 video frame)
Writing library             : LAME3.98r
Encoding settings           : -m j -V 4 -q 2 -lowpass 17 -b 128










http://lolabits.es/ferf13/Bones+-Season+04


Password: FerF13

Aclaración 1: Esta en calidad DVDRIP 480P, WEB-DL 720p, audio Español Latino (2.0)

Aclaración 2: Si te robas mis post da credito.

Aclaración 3: Agradecer no cuesta nada, no exijas y pidas gustos cuanto todo es gratis...
Aclaración 4 IMPORTANTE: Como todo mundo sabe LolaBits solo estara online hasta el 31 de Marzo asi que aprovechen.
Bns-T05x01.avi
Format                      : AVI
Format/Info                 : Audio Video Interleave
File size                   : 446 MiB
Duration                    : 42mn 13s
Overall bit rate            : 1 478 Kbps
Writing application         : VirtualDubMod 1.5.10.2 (build 2540/release)
Writing library             : VirtualDubMod build 2540/release

Video
ID                          : 0
Format                      : MPEG-4 Visual
Format profile              : Advanced [email protected]
Format settings, BVOP       : 1
Format settings, QPel       : No
Format settings, GMC        : No warppoints
Format settings, Matrix     : Custom
Codec ID                    : XVID
Codec ID/Hint               : XviD
Duration                    : 42mn 13s
Bit rate                    : 1 208 Kbps
Width                       : 704 pixels
Height                      : 400 pixels
Display aspect ratio        : 16:9
Frame rate                  : 25.000 fps
Color space                 : YUV
Chroma subsampling          : 4:2:0
Bit depth                   : 8 bits
Scan type                   : Progressive
Compression mode            : Lossy
Bits/(Pixel*Frame)          : 0.172
Stream size                 : 365 MiB (82%)
Writing library             : XviD 64

Audio #1
ID                          : 1
Format                      : MPEG Audio
Format version              : Version 1
Format profile              : Layer 3
Mode                        : Joint stereo
Mode extension              : MS Stereo
Codec ID                    : 55
Codec ID/Hint               : MP3
Duration                    : 42mn 12s
Bit rate mode               : Constant
Bit rate                    : 128 Kbps
Channel(s)                  : 2 channels
Sampling rate               : 48.0 KHz
Compression mode            : Lossy
Stream size                 : 38.6 MiB (9%)
Alignment                   : Split accross interleaves
Interleave, duration        : 40 ms (1.00 video frame)
Interleave, preload duratio : 500 ms

Audio #2
ID                          : 2
Format                      : MPEG Audio
Format version              : Version 1
Format profile              : Layer 3
Mode                        : Joint stereo
Mode extension              : MS Stereo
Codec ID                    : 55
Codec ID/Hint               : MP3
Duration                    : 42mn 13s
Bit rate mode               : Constant
Bit rate                    : 128 Kbps
Channel(s)                  : 2 channels
Sampling rate               : 48.0 KHz
Compression mode            : Lossy
Stream size                 : 38.7 MiB (9%)
Alignment                   : Aligned on interleaves
Interleave, duration        : 40 ms (1.00 video frame)
Interleave, preload duratio : 504 ms





Password: FerF13

Aclaración 1: Esta en calidad DVDRIP 480P, WEB-DL 720p, audio Español Latino (2.0) e Ingles (2.0)

Aclaración 2: Si te robas mis post da credito.

Aclaración 3: Agradecer no cuesta nada, no exijas y pidas gustos cuanto todo es gratis...
Aclaración 4 IMPORTANTE: Como todo mundo sabe LolaBits solo estara online hasta el 31 de Marzo asi que aprovechen.

Bns-T06x01.avi
Format                      : AVI
Format/Info                 : Audio Video Interleave
File size                   : 446 MiB
Duration                    : 42mn 5s
Overall bit rate            : 1 483 Kbps
Writing application         : VirtualDubMod 1.5.10.2 (build 2540/release)
Writing library             : VirtualDubMod build 2540/release

Video
ID                          : 0
Format                      : MPEG-4 Visual
Format profile              : Advanced [email protected]
Format settings, BVOP       : 1
Format settings, QPel       : No
Format settings, GMC        : No warppoints
Format settings, Matrix     : Custom
Codec ID                    : XVID
Codec ID/Hint               : XviD
Duration                    : 42mn 5s
Bit rate                    : 1 212 Kbps
Width                       : 704 pixels
Height                      : 400 pixels
Display aspect ratio        : 16:9
Frame rate                  : 25.000 fps
Color space                 : YUV
Chroma subsampling          : 4:2:0
Bit depth                   : 8 bits
Scan type                   : Progressive
Compression mode            : Lossy
Bits/(Pixel*Frame)          : 0.172
Stream size                 : 365 MiB (82%)
Writing library             : XviD 1.2.1 (UTC 2008-12-04)

Audio #1
ID                          : 1
Format                      : MPEG Audio
Format version              : Version 1
Format profile              : Layer 3
Mode                        : Joint stereo
Mode extension              : MS Stereo
Codec ID                    : 55
Codec ID/Hint               : MP3
Duration                    : 42mn 4s
Bit rate mode               : Constant
Bit rate                    : 128 Kbps
Channel(s)                  : 2 channels
Sampling rate               : 48.0 KHz
Compression mode            : Lossy
Stream size                 : 38.5 MiB (9%)
Alignment                   : Split accross interleaves
Interleave, duration        : 40 ms (1.00 video frame)

Audio #2
ID                          : 2
Format                      : MPEG Audio
Format version              : Version 1
Format profile              : Layer 3
Mode                        : Joint stereo
Mode extension              : MS Stereo
Codec ID                    : 55
Codec ID/Hint               : MP3
Duration                    : 42mn 4s
Bit rate mode               : Constant
Bit rate                    : 128 Kbps
Channel(s)                  : 2 channels
Sampling rate               : 48.0 KHz
Compression mode            : Lossy
Stream size                 : 38.5 MiB (9%)
Alignment                   : Split accross interleaves
Interleave, duration        : 40 ms (1.00 video frame)





Password: FerF13

Aclaración 1: Esta en calidad DVDRIP 480P, WEB-DL 720p, audio Español Latino (2.0) e Ingles (2.0)

Aclaración 2: Si te robas mis post da credito.

Aclaración 3: Agradecer no cuesta nada, no exijas y pidas gustos cuanto todo es gratis...
Aclaración 4 IMPORTANTE: Como todo mundo sabe LolaBits solo estara online hasta el 31 de Marzo asi que aprovechen.

Bns-T07x01.avi
Format                      : AVI
Format/Info                 : Audio Video Interleave
File size                   : 447 MiB
Duration                    : 43mn 34s
Overall bit rate            : 1 433 Kbps
Writing application         : VirtualDubMod 1.5.10.2 (build 2540/release)
Writing library             : VirtualDubMod build 2540/release

Video
ID                          : 0
Format                      : MPEG-4 Visual
Format profile              : Advanced [email protected]
Format settings, BVOP       : 1
Format settings, QPel       : No
Format settings, GMC        : No warppoints
Format settings, Matrix     : Custom
Codec ID                    : XVID
Codec ID/Hint               : XviD
Duration                    : 43mn 34s
Bit rate                    : 1 162 Kbps
Width                       : 720 pixels
Height                      : 400 pixels
Display aspect ratio        : 16:9
Frame rate                  : 23.976 (23976/1000) fps
Color space                 : YUV
Chroma subsampling          : 4:2:0
Bit depth                   : 8 bits
Scan type                   : Progressive
Compression mode            : Lossy
Bits/(Pixel*Frame)          : 0.168
Stream size                 : 362 MiB (81%)
Writing library             : XviD 1.2.1 (UTC 2008-12-04)

Audio #1
ID                          : 1
Format                      : MPEG Audio
Format version              : Version 1
Format profile              : Layer 3
Mode                        : Joint stereo
Mode extension              : MS Stereo
Codec ID                    : 55
Codec ID/Hint               : MP3
Duration                    : 43mn 34s
Bit rate mode               : Constant
Bit rate                    : 128 Kbps
Channel(s)                  : 2 channels
Sampling rate               : 48.0 KHz
Compression mode            : Lossy
Stream size                 : 39.9 MiB (9%)
Alignment                   : Split accross interleaves
Interleave, duration        : 42 ms (1.00 video frame)

Audio #2
ID                          : 2
Format                      : MPEG Audio
Format version              : Version 1
Format profile              : Layer 3
Mode                        : Joint stereo
Mode extension              : MS Stereo
Codec ID                    : 55
Codec ID/Hint               : MP3
Duration                    : 43mn 34s
Bit rate mode               : Constant
Bit rate                    : 128 Kbps
Channel(s)                  : 2 channels
Sampling rate               : 48.0 KHz
Compression mode            : Lossy
Stream size                 : 39.9 MiB (9%)
Alignment                   : Split accross interleaves
Interleave, duration        : 42 ms (1.00 video frame)





Password: FerF13

Aclaración 1: Esta en calidad DVDRIP 480P, WEB-DL 720p, audio Español Latino (2.0) e Ingles (2.0)

Aclaración 2: Si te robas mis post da credito.

Aclaración 3: Agradecer no cuesta nada, no exijas y pidas gustos cuanto todo es gratis...
Aclaración 4 IMPORTANTE: Como todo mundo sabe LolaBits solo estara online hasta el 31 de Marzo asi que aprovechen.

Bns-T08x01.avi
Format                      : AVI
Format/Info                 : Audio Video Interleave
File size                   : 445 MiB
Duration                    : 41mn 58s
Overall bit rate            : 1 482 Kbps
Writing application         : VirtualDubMod 1.5.4.1 (build 2178/release)
Writing library             : VirtualDubMod build 2178/release

Video
ID                          : 0
Format                      : MPEG-4 Visual
Format profile              : Advanced [email protected]
Format settings, BVOP       : 1
Format settings, QPel       : No
Format settings, GMC        : No warppoints
Format settings, Matrix     : Custom
Codec ID                    : XVID
Codec ID/Hint               : XviD
Duration                    : 41mn 58s
Bit rate                    : 1 216 Kbps
Width                       : 720 pixels
Height                      : 416 pixels
Display aspect ratio        : 1.731
Frame rate                  : 25.000 fps
Color space                 : YUV
Chroma subsampling          : 4:2:0
Bit depth                   : 8 bits
Scan type                   : Progressive
Compression mode            : Lossy
Bits/(Pixel*Frame)          : 0.162
Stream size                 : 365 MiB (82%)
Writing library             : XviD 64

Audio #1
ID                          : 1
Format                      : MPEG Audio
Format version              : Version 1
Format profile              : Layer 3
Mode                        : Joint stereo
Mode extension              : MS Stereo
Codec ID                    : 55
Codec ID/Hint               : MP3
Duration                    : 41mn 58s
Bit rate mode               : Constant
Bit rate                    : 128 Kbps
Channel(s)                  : 2 channels
Sampling rate               : 48.0 KHz
Compression mode            : Lossy
Stream size                 : 38.4 MiB (9%)
Alignment                   : Aligned on interleaves
Interleave, duration        : 80 ms (2.00 video frames)
Interleave, preload duratio : 504 ms

Audio #2
ID                          : 2
Format                      : MPEG Audio
Format version              : Version 1
Format profile              : Layer 3
Mode                        : Joint stereo
Mode extension              : MS Stereo
Codec ID                    : 55
Codec ID/Hint               : MP3
Duration                    : 41mn 58s
Bit rate mode               : Constant
Bit rate                    : 128 Kbps
Channel(s)                  : 2 channels
Sampling rate               : 48.0 KHz
Compression mode            : Lossy
Stream size                 : 38.4 MiB (9%)
Alignment                   : Aligned on interleaves
Interleave, duration        : 80 ms (2.00 video frames)
Interleave, preload duratio : 504 ms





Password: FerF13

Aclaración 1: Esta en calidad DVDRIP 480P, WEB-DL 720p, audio Español Latino (2.0) e Ingles (2.0)

Aclaración 2: Si te robas mis post da credito.

Aclaración 3: Agradecer no cuesta nada, no exijas y pidas gustos cuanto todo es gratis...
Aclaración 4 IMPORTANTE: Como todo mundo sabe LolaBits solo estara online hasta el 31 de Marzo asi que aprovechen.

B.9x01.avi
Format                      : AVI
Format/Info                 : Audio Video Interleave
File size                   : 445 MiB
Duration                    : 43mn 22s
Overall bit rate            : 1 434 Kbps
Writing application         : VirtualDubMod 1.5.4.1 (build 2178/release)
Writing library             : VirtualDubMod build 2178/release

Video
ID                          : 0
Format                      : MPEG-4 Visual
Format profile              : Advanced [email protected]
Format settings, BVOP       : 1
Format settings, QPel       : No
Format settings, GMC        : No warppoints
Format settings, Matrix     : Custom
Codec ID                    : XVID
Codec ID/Hint               : XviD
Duration                    : 43mn 22s
Bit rate                    : 1 169 Kbps
Width                       : 720 pixels
Height                      : 416 pixels
Display aspect ratio        : 1.731
Frame rate                  : 23.976 (23976/1000) fps
Color space                 : YUV
Chroma subsampling          : 4:2:0
Bit depth                   : 8 bits
Scan type                   : Progressive
Compression mode            : Lossy
Bits/(Pixel*Frame)          : 0.163
Stream size                 : 363 MiB (82%)
Writing library             : XviD 64

Audio #1
ID                          : 1
Format                      : MPEG Audio
Format version              : Version 1
Format profile              : Layer 3
Mode                        : Joint stereo
Mode extension              : MS Stereo
Codec ID                    : 55
Codec ID/Hint               : MP3
Duration                    : 43mn 22s
Bit rate mode               : Constant
Bit rate                    : 128 Kbps
Channel(s)                  : 2 channels
Sampling rate               : 48.0 KHz
Compression mode            : Lossy
Stream size                 : 39.7 MiB (9%)
Alignment                   : Aligned on interleaves
Interleave, duration        : 83 ms (2.00 video frames)
Interleave, preload duratio : 504 ms
Writing library             : LAME3.98r
Encoding settings           : -m j -V 4 -q 2 -lowpass 17 -b 128

Audio #2
ID                          : 2
Format                      : MPEG Audio
Format version              : Version 1
Format profile              : Layer 3
Mode                        : Joint stereo
Mode extension              : MS Stereo
Codec ID                    : 55
Codec ID/Hint               : MP3
Duration                    : 43mn 22s
Bit rate mode               : Constant
Bit rate                    : 128 Kbps
Channel(s)                  : 2 channels
Sampling rate               : 48.0 KHz
Compression mode            : Lossy
Stream size                 : 39.7 MiB (9%)
Alignment                   : Aligned on interleaves
Interleave, duration        : 83 ms (2.00 video frames)
Interleave, preload duratio : 504 ms
Writing library             : LAME3.98r
Encoding settings           : -m j -V 4 -q 2 -lowpass 17 -b 128





Password: FerF13

Aclaración 1: Esta en calidad DVDRIP 480P, WEB-DL 720p, audio Español Latino (2.0) e Ingles (2.0)

Aclaración 2: Si te robas mis post da credito.

Aclaración 3: Agradecer no cuesta nada, no exijas y pidas gustos cuanto todo es gratis...
Aclaración 4 IMPORTANTE: Como todo mundo sabe LolaBits solo estara online hasta el 31 de Marzo asi que aprovechen.

Bones | Season | 01 a 09 | 480p | x264 | LATINO|LB
65 Puntos Score: 9.3/10
Visitas: 1772 Favoritos: 10
Ver los usuarios que votaron...
18 Comentarios Bones | Season | 01 a 09 | 480p | x264 | LATINO|LB
muy buen post descargando. gracas
Excelente aporte, muchas gracias!
Gran aporte !!! Hay alg?
Genial muchas gracias, crees que podras subir la temporada 10? lo pregunto porqe yo hace un tiempo comparti los audios latinos
gente dejen de subir cosas a ese servidor, se caeran en unos dias, que sentido tiene eso D:?
no puedo capturar los links;
gracias por el aporte pero no se si puedes subirlo a otro servidor por tus link tan caidos
gracias nuevamente
felicidades, aprovechar antes que cierren el servidor,por cierto no sirve la temporada 4, ojala puedas arreglarlo
Seria mucha la molestia que solo subieras los audios ???
gracias por tus aportes, yo tengo la temporada 10 con audio latino en dvd, pero no los puedo subir por ser nuevo o la verdad no he posteado... no se si estan interezados a ver que se puede hacer....
muchas gracias por el aporte aun k la temporada 4 no funciona
Cita check0: Mostrar
en eso estoy hehehe, pero no eh tenido tiempo0 queria sincronizar todo en calidad 720p o 1080p pero el trabajo me consume muhco tiempo ahorita.
Cita animecri: Mostrar
la subi ya tiempos solo que por falta de tiempo no lo habia publicado....


Cita Chichoz: Mostrar
amigo,,,la tempoarda 6 el episodio 5 no lo puedo descargar!!
amigo disculpa no se si me podrias parar el link por MP, Mipony no los agrega los link
@ferf13 ayudame con los likns antes que se caigan por mp si es posible;


Saluds.
@ferf13 La vas a resubir en algun momento?
Para dejar un comentario Registrate! o.. eres ya usuario? Accede!