Secret in their eyes 2015 1080p Latino-ingles x265







.
Sinopsis




Dos investigadores del FBI con una estrecha relación, Ray y Jess, son relevados de su puesto, junto con la supervisora del Fiscal del Distrito Claire, cuando aparece brutalmente asesinada la hija adolescente de Jess. Trece años después, tras buscar de forma incansable todos los días al asesino, Ray por fin encuentra una pista para resolver el caso... Remake de "El secreto de sus ojos" (2009).




Format                      : Matroska
File size                   : 1.47 GiB
Duration                    : 1h 51mn
Overall bit rate            : 1 880 Kbps

Video
ID                          : 1
Format                      : HEVC
Format/Info                 : High Efficiency Video Coding
Format profile              : [email protected]@Main
Codec ID                    : V_MPEGH/ISO/HEVC
Duration                    : 1h 51mn
Bit rate                    : 1 011 Kbps
Width                       : 1 916 pixels
Height                      : 796 pixels
Display aspect ratio        : 2.40:1
Frame rate mode             : Constant
Frame rate                  : 23.976 fps

Audio #1
ID                          : 2
Format                      : AC-3
Format/Info                 : Audio Coding 3
Mode extension              : CM (complete main)
Format settings, Endianness : Big
Muxing mode                 : Header stripping
Codec ID                    : A_AC3
Duration                    : 1h 51mn
Bit rate mode               : Constant
Bit rate                    : 384 Kbps
Channel(s)                  : 6 channels
Channel positions           : Front: L C R, Side: L R, LFE
Sampling rate               : 48.0 KHz
Compression mode            : Lossy
Stream size                 : 307 MiB (20%)
Language                    : English
Default                     : Yes
Forced                      : No

Audio #2
ID                          : 4
Format                      : AC-3
Format/Info                 : Audio Coding 3
Mode extension              : CM (complete main)
Format settings, Endianness : Big
Muxing mode                 : Header stripping
Codec ID                    : A_AC3
Duration                    : 1h 51mn
Bit rate mode               : Constant
Bit rate                    : 448 Kbps
Channel(s)                  : 6 channels
Channel positions           : Front: L C R, Side: L R, LFE
Sampling rate               : 48.0 KHz
Compression mode            : Lossy
Delay relative to video     : 1s 0ms
Stream size                 : 358 MiB (24%)
Language                    : Spanish
Default                     : No
Forced                      : No

Text
ID                          : 3
Format                      : UTF-8
Codec ID                    : S_TEXT/UTF8
Codec ID/Info               : UTF-8 Plain Text
Language                    : Spanish
Default                     : Yes
Forced                      : No

Menu
00:00:00.000                : en:1
00:05:14.189                : en:2
00:10:54.153                : en:3
00:18:22.184                : en:4
00:22:43.153                : en:5
00:26:49.149                : en:6
00:34:32.195                : en:7
00:42:41.142                : en:8
00:46:33.124                : en:9
00:52:01.160                : en:10
00:56:18.166                : en:11
01:00:19.157                : en:12
01:05:48.194                : en:13
01:12:36.185                : en:14
01:17:31.146                : en:15
01:21:34.139                : en:16
01:25:25.120                : en:17
01:31:18.139                : en:18
01:37:21.169                : en:19
01:45:32.159                : en:20













Secret in their eyes 2015 1080p Latino-ingles x265
10 Puntos Score: 10/10
Visitas: 2465 Favoritos: 3
Ver los usuarios que votaron...
2 Comentarios Secret in their eyes 2015 1080p Latino-ingles x265
excelente gracias
la estaba esperando en latino, ahora solo me falta el 264 y listo
Para dejar un comentario Registrate! o.. eres ya usuario? Accede!