Ernest y Célestine (2012)(Latino)(720p)(MG)

Ernest & Célestine (2012)



BDRIP 720p - Latino - Francés


 


Ernest y Célestine (en francés: Ernest et Célestine, mismo significado) es una película de 2012 de animación franco-belga dirigida por Stéphane Aubier, Vincent Patar y Benjamin Renner estrenada el 12 de diciembre de 2012 en su país de origen, Francia. La película está basada en una serie de libros infantiles del mismo nombre publicados por la autora e ilustradora belga Gabrielle Vincent.

Ernest & Célestine es un cuento, una entrañable historia que narra cómo un gran oso y una pequeña ratoncita se hacen amigos de una forma muy extraña pues, nada más conocerse, él se la intenta comer. El oso se llama Ernest y la ratoncita es Célestine. A pesar de sus muchas diferencias, ambos tienen algo en común: ninguno quiere hacer lo que se supone que les está destinado. Ernest, se supone que debe ser notario, pero él no quiere, y, en lo referente a Célestine, lo que ella intenta evitar a toda costa es ser dentista.

No hay mucha gente que les entienda, pero, como se tienen el uno al otro, la vida se les hace mucho más sencilla. Además, entre los osos y los ratones hay muchas diferencias sociales: mientras que los primeros pueden conducir y vivir en lujosas casas, los segundos siguen viviendo en el mundo subterráneo, en condiciones mucho peores que las de los grandes mamíferos peludos.


Características:

Format                         : Matroska
Format version                 : Version 2
File size                      : 905 MiB
Duration                       : 1h 19mn
Overall bit rate               : 1 596 Kbps
Movie name                     : Ernest & Célestine (2012)
Encoded date                   : UTC 2016-02-24 18:03:37
Writing application            : mkvmerge v4.0.0 ('The Stars were mine') built on Jun  6 2010 16:18:42
Writing library                : libebml v1.0.0 + libmatroska v1.0.0

Video
ID                             : 1
Format                         : AVC
Format/Info                    : Advanced Video Codec
Format profile                 : [email protected]
Format settings, CABAC         : Yes
Format settings, ReFrames      : 4 frames
Codec ID                       : V_MPEG4/ISO/AVC
Duration                       : 1h 19mn
Bit rate                       : 1 278 Kbps
Width                          : 1 280 pixels
Height                         : 720 pixels
Display aspect ratio           : 16:9
Frame rate mode                : Constant
Frame rate                     : 24.000 fps
Color space                    : YUV
Chroma subsampling             : 4:2:0
Bit depth                      : 8 bits
Scan type                      : Progressive
Bits/(Pixel*Frame)             : 0.058
Stream size                    : 706 MiB (78%)
Title                          : Ernest & Célestine (2012)
Writing library                : x264 core 138 r2358 9e941d1
Encoding settings              : cabac=1 / ref=5 / deblock=1:-1:-1 / analyse=0x3:0x113 / me=umh / subme=8 / psy=1 / psy_rd=1.00:0.06 / mixed_ref=1 / me_range=16 / chroma_me=1 / trellis=1 / 8x8dct=1 / cqm=0 / deadzone=21,11 / fast_pskip=1 / chroma_qp_offset=-3 / threads=6 / lookahead_threads=1 / sliced_threads=0 / nr=0 / decimate=1 / interlaced=0 / bluray_compat=0 / constrained_intra=0 / bframes=3 / b_pyramid=1 / b_adapt=2 / b_bias=0 / direct=3 / weightb=1 / open_gop=0 / weightp=2 / keyint=240 / keyint_min=24 / scenecut=40 / intra_refresh=0 / rc_lookahead=50 / rc=2pass / mbtree=1 / bitrate=1278 / ratetol=1.0 / qcomp=0.60 / qpmin=10 / qpmax=51 / qpstep=4 / cplxblur=20.0 / qblur=0.5 / vbv_maxrate=2000 / vbv_bufsize=2000 / nal_hrd=none / ip_ratio=1.40 / aq=1:1.00
Language                       : French
Default                        : Yes
Forced                         : Yes

Audio #1
ID                             : 2
Format                         : AC-3
Format/Info                    : Audio Coding 3
Mode extension                 : CM (complete main)
Format settings, Endianness    : Big
Codec ID                       : A_AC3
Duration                       : 1h 19mn
Bit rate mode                  : Constant
Bit rate                       : 192 Kbps
Channel(s)                     : 2 channels
Channel positions              : Front: L R
Sampling rate                  : 48.0 KHz
Compression mode               : Lossy
Delay relative to video        : 8ms
Stream size                    : 109 MiB (12%)
Title                          : Latino
Language                       : Spanish
Default                        : Yes
Forced                         : Yes

Audio #2
ID                             : 3
Format                         : AC-3
Format/Info                    : Audio Coding 3
Mode extension                 : CM (complete main)
Format settings, Endianness    : Big
Codec ID                       : A_AC3
Duration                       : 1h 19mn
Bit rate mode                  : Constant
Bit rate                       : 128 Kbps
Channel(s)                     : 2 channels
Channel positions              : Front: L R
Sampling rate                  : 48.0 KHz
Compression mode               : Lossy
Stream size                    : 72.6 MiB (8%)
Title                          : Francés
Language                       : French
Default                        : No
Forced                         : No

Text
ID                             : 4
Format                         : UTF-8
Codec ID                       : S_TEXT/UTF8
Codec ID/Info                  : UTF-8 Plain Text
Title                          : Español
Language                       : Spanish
Default                        : No
Forced                         : No



Link de descarga:





IMPORTANTE:
Cambiar la extensión de .RAR a .MKV


Ernest y Célestine (2012)(Latino)(720p)(MG)
40 Puntos Score: 10/10
Visitas: 1495 Favoritos: 2
Ver los usuarios que votaron...
6 Comentarios Ernest y Célestine (2012)(Latino)(720p)(MG)
este es un filme hermoso saludos y gracias
saben como poder ver las ventanas que me aparecen en gris diciendo" se necesita un plugin para mostrar este contenido"?
@Walteers No sabria decirte camarada, tal vez desactivando temporalmente alguna extensi?
Gracias!! la estaba esperando en espa?
Cita SWAT666: Mostrar
Para dejar un comentario Registrate! o.. eres ya usuario? Accede!