El tigre y el dragon 2 2016 720p Lat-ing x265






Sinopsis



Evitar que la espada de un gran guerrero caiga en las manos de un tirano, cambiará todo como nunca imaginaron.




 Format                      : Matroska
File size                   : 1.01 GiB
Duration                    : 1h 40mn
Overall bit rate            : 1 439 Kbps

Video
ID                          : 1
Format                      : HEVC
Format/Info                 : High Efficiency Video Coding
Format profile              : [email protected]@Main
Codec ID                    : V_MPEGH/ISO/HEVC
Bit rate                    : 578 Kbps
Width                       : 1 280 pixels
Height                      : 544 pixels
Display aspect ratio        : 2.35:1
Frame rate mode             : Variable
Original frame rate         : 25.000 fps

Audio #1
ID                          : 2
Format                      : AC-3
Format/Info                 : Audio Coding 3
Mode extension              : CM (complete main)
Format settings, Endianness : Big
Codec ID                    : A_AC3
Duration                    : 1h 40mn
Bit rate mode               : Constant
Bit rate                    : 640 Kbps
Channel(s)                  : 6 channels
Channel positions           : Front: L C R, Side: L R, LFE
Sampling rate               : 48.0 KHz
Compression mode            : Lossy
Stream size                 : 460 MiB (44%)
Title                       : AC3 5.1
Language                    : English
Default                     : Yes
Forced                      : No

Audio #2
ID                          : 9
Format                      : AC-3
Format/Info                 : Audio Coding 3
Mode extension              : CM (complete main)
Format settings, Endianness : Big
Codec ID                    : A_AC3
Duration                    : 1h 40mn
Bit rate mode               : Constant
Bit rate                    : 192 Kbps
Channel(s)                  : 2 channels
Channel positions           : Front: L R
Sampling rate               : 48.0 KHz
Compression mode            : Lossy
Stream size                 : 138 MiB (13%)
Language                    : Spanish
Default                     : No
Forced                      : No

Text #1
ID                          : 3
Format                      : UTF-8
Codec ID                    : S_TEXT/UTF8
Codec ID/Info               : UTF-8 Plain Text
Title                       : English
Language                    : English
Default                     : Yes
Forced                      : No

Text #2
ID                          : 4
Format                      : UTF-8
Codec ID                    : S_TEXT/UTF8
Codec ID/Info               : UTF-8 Plain Text
Title                       : English (SDH)
Language                    : English
Default                     : No
Forced                      : No

Text #3
ID                          : 5
Format                      : UTF-8
Codec ID                    : S_TEXT/UTF8
Codec ID/Info               : UTF-8 Plain Text
Title                       : Dutch
Language                    : Dutch
Default                     : No
Forced                      : No

Text #4
ID                          : 6
Format                      : UTF-8
Codec ID                    : S_TEXT/UTF8
Codec ID/Info               : UTF-8 Plain Text
Title                       : French
Language                    : French
Default                     : No
Forced                      : No

Text #5
ID                          : 7
Format                      : UTF-8
Codec ID                    : S_TEXT/UTF8
Codec ID/Info               : UTF-8 Plain Text
Title                       : German
Language                    : German
Default                     : No
Forced                      : No

Text #6
ID                          : 8
Format                      : UTF-8
Codec ID                    : S_TEXT/UTF8
Codec ID/Info               : UTF-8 Plain Text
Title                       : Italian
Language                    : Italian
Default                     : No
Forced                      : No

Text #7
ID                          : 10
Format                      : UTF-8
Codec ID                    : S_TEXT/UTF8
Codec ID/Info               : UTF-8 Plain Text
Language                    : Spanish
Default                     : No
Forced                      : No










ZIPPYSHARE






http://noref.li/index.php?v=2026

 
http://pelishevc.blogspot.cl/







El tigre y el dragon 2 2016 720p Lat-ing x265
15 Puntos Score: 7.5/10
Visitas: 1619 Favoritos: 2
Ver los usuarios que votaron...
3 Comentarios El tigre y el dragon 2 2016 720p Lat-ing x265
Para los legos:
?
Perdon, es x265....el titulo no permite mas caracteres
porkeno pueden ser convertidasadvd en vso5
Para dejar un comentario Registrate! o.. eres ya usuario? Accede!