The Secret of Kells (2009)(Latino)(1080p)(MG)

The Secret of Kells (2009)

El Secreto de Kells (2009)

BDRIP 1080p - Latino - Inglés





El secreto de Kells (The Secret of Kells) es una película animada 2D de coproducción irlandesa-francesa-belga- realizada por la empresa de animación irlandesa Cartoon Salon, dirigida por Tomm Moore y Nora Twomey, estrenada el 8 de febrero de 2009 en el Festival Internacional de Cine de Berlín. El 2 de febrero de 2010, fue nominada a los Premios Óscar dentro de la categoría de mejor película de animación del año 2009.
La película, ambientada en el siglo IX, cuenta las vicisitudes de un joven fraile que habita en la Abadía de Kells, en el puebloirlandés de Kells, en el momento en que se iluminaba el famoso Libro de Kells.

Caracteristicas:

Format                         : Matroska
Format version                 : Version 2
File size                      : 1.72 GiB
Duration                       : 1 h 18 min
Overall bit rate mode          : Variable
Overall bit rate               : 3 121 kb/s
Movie name                     : The Secret of Kells (2009)
Encoded date                   : UTC 2016-09-11 01:12:22
Writing application            : mkvmerge v4.0.0 ('The Stars were mine') built on Jun  6 2010 16:18:42
Writing library                : libebml v1.0.0 + libmatroska v1.0.0

Video
ID                             : 1
Format                         : AVC
Format/Info                    : Advanced Video Codec
Format profile                 : [email protected]
Format settings, CABAC         : Yes
Format settings, ReFrames      : 16 frames
Codec ID                       : V_MPEG4/ISO/AVC
Duration                       : 1 h 18 min
Width                          : 1 920 pixels
Height                         : 1 080 pixels
Display aspect ratio           : 16:9
Frame rate mode                : Constant
Frame rate                     : 23.976 (24000/1001) FPS
Color space                    : YUV
Chroma subsampling             : 4:2:0
Bit depth                      : 8 bits
Scan type                      : Progressive
Title                          : The Secret of Kells (2009)
Writing library                : x264 core 122
Encoding settings              : cabac=1 / ref=16 / deblock=1:-2:-2 / analyse=0x3:0x133 / me=umh / subme=9 / psy=1 / psy_rd=0.40:0.00 / mixed_ref=1 / me_range=16 / chroma_me=1 / trellis=2 / 8x8dct=1 / cqm=0 / deadzone=21,11 / fast_pskip=1 / chroma_qp_offset=-2 / threads=6 / sliced_threads=0 / nr=0 / decimate=1 / interlaced=0 / bluray_compat=0 / constrained_intra=0 / bframes=5 / b_pyramid=2 / b_adapt=2 / b_bias=0 / direct=3 / weightb=1 / open_gop=0 / weightp=2 / keyint=250 / keyint_min=23 / scenecut=40 / intra_refresh=0 / rc_lookahead=60 / rc=crf / mbtree=1 / crf=22.0 / qcomp=0.60 / qpmin=0 / qpmax=69 / qpstep=4 / ip_ratio=1.40 / aq=1:0.60
Language                       : English
Default                        : Yes
Forced                         : Yes

Audio #1
ID                             : 2
Format                         : AC-3
Format/Info                    : Audio Coding 3
Mode extension                 : CM (complete main)
Format settings, Endianness    : Big
Codec ID                       : A_AC3
Duration                       : 1 h 18 min
Bit rate mode                  : Constant
Bit rate                       : 128 kb/s
Channel(s)                     : 2 channels
Channel positions              : Front: L R
Sampling rate                  : 48.0 kHz
Frame rate                     : 31.250 FPS (1536 spf)
Compression mode               : Lossy
Stream size                    : 72.1 MiB (4%)
Title                          : Latino
Language                       : Spanish
Default                        : Yes
Forced                         : Yes

Audio #2
ID                             : 3
Format                         : MPEG Audio
Format version                 : Version 1
Format profile                 : Layer 3
Mode                           : Joint stereo
Mode extension                 : MS Stereo
Codec ID                       : A_MPEG/L3
Codec ID/Hint                  : MP3
Duration                       : 1 h 18 min
Bit rate mode                  : Constant
Bit rate                       : 128 kb/s
Channel(s)                     : 2 channels
Sampling rate                  : 48.0 kHz
Compression mode               : Lossy
Stream size                    : 72.1 MiB (4%)
Title                          : Latino
Writing library                : LAME3.99.5
Language                       : Spanish
Default                        : No
Forced                         : No

Audio #3
ID                             : 4
Format                         : AAC
Format/Info                    : Advanced Audio Codec
Format profile                 : HE-AAC / LC
Codec ID                       : A_AAC
Duration                       : 1 h 18 min
Channel(s)                     : 2 channels
Channel positions              : Front: L R
Sampling rate                  : 48.0 kHz / 24.0 kHz
Frame rate                     : 23.438 FPS (1024 spf)
Compression mode               : Lossy
Delay relative to video        : 31 ms
Title                          : Inglés
Language                       : English
Default                        : No
Forced                         : No

Audio #4
ID                             : 5
Format                         : Vorbis
Format settings, Floor         : 1
Codec ID                       : A_VORBIS
Duration                       : 1 h 18 min
Bit rate mode                  : Variable
Bit rate                       : 128 kb/s
Channel(s)                     : 2 channels
Sampling rate                  : 44.1 kHz
Compression mode               : Lossy
Stream size                    : 72.1 MiB (4%)
Title                          : Checo
Writing library                : libVorbis (Schaufenugget) (20101101 (Schaufenugget))
Language                       : Czech
Default                        : No
Forced                         : No

Text #1
ID                             : 6
Format                         : UTF-8
Codec ID                       : S_TEXT/UTF8
Codec ID/Info                  : UTF-8 Plain Text
Title                          : Español
Language                       : Spanish
Default                        : No
Forced                         : No

Text #2
ID                             : 7
Format                         : UTF-8
Codec ID                       : S_TEXT/UTF8
Codec ID/Info                  : UTF-8 Plain Text
Title                          : Inglés
Language                       : English
Default                        : No
Forced                         : No



Links de descarga:






Versión 720p






IMPORTANTE:
Si les da error al extraer la 1080p usar WinRAR 5.40
The Secret of Kells (2009)(Latino)(1080p)(MG)
77 Puntos Score: 9.6/10
Visitas: 1504 Favoritos: 2
Ver los usuarios que votaron...
8 Comentarios The Secret of Kells (2009)(Latino)(1080p)(MG)
Excelente aporte, tenia tiempo buscandola, MIL GRACIAS !!!!  
Mil gracias, dificil de encontrar!!!
Muchas gracias por compartir, saludos amigo  
Rato buscandola, gracias mil
gracias se ve bien interesante
Para dejar un comentario Registrate! o.. eres ya usuario? Accede!