Zombies A Living History (2011)(Latino)(1080p)(MG)

Zombies: A Living History (2011)


Zombies: Una Historia Viviente (2011)


WEBDL - 1080p - LATINO






La mayoría de la gente cree que los zombies son un fenómeno reciente, que surgió a partir de los cómics, las películas y la televisión. La verdad es muy diferente. Este especial de dos horas explora la verdadera su historia en los albores de la civilización hasta la actualidad. Veremos cómo en el Antiguo y Nuevo Testamento de la Biblia se revelan numerosas historias de muertos vivientes y detallaremos cómo la Peste Negra de Europa se convirtió en uno de los períodos más prolíficos de los mitos y leyendas acerca de zombies. Examine junto a nosotros, otras leyendas de sobre estas criaturas de todo el mundo, incluyendo las historias secretas de China y rituales del vudú de Haití.




Especificaciones:


Format                         : Matroska
Format version                 : Version 2
File size                      : 1.48 GiB
Duration                       : 1h 27mn
Overall bit rate               : 2 422 Kbps
Movie name                     : Zombies: A Living History (2011)
Encoded date                   : UTC 2016-02-19 18:12:37
Writing application            : mkvmerge v4.0.0 ('The Stars were mine') built on Jun  6 2010 16:18:42
Writing library                : libebml v1.0.0 + libmatroska v1.0.0

Video
ID                             : 1
Format                         : AVC
Format/Info                    : Advanced Video Codec
Format profile                 : [email protected]
Format settings, CABAC         : Yes
Format settings, ReFrames      : 3 frames
Codec ID                       : V_MPEG4/ISO/AVC
Duration                       : 1h 27mn
Bit rate                       : 2 214 Kbps
Width                          : 1 920 pixels
Height                         : 1 080 pixels
Display aspect ratio           : 16:9
Frame rate mode                : Constant
Frame rate                     : 25.000 fps
Color space                    : YUV
Chroma subsampling             : 4:2:0
Bit depth                      : 8 bits
Scan type                      : Progressive
Bits/(Pixel*Frame)             : 0.043
Stream size                    : 1.35 GiB (91%)
                      Title      : Zombies: A Living History (2011)
Language                       : English
Default                        : Yes
Forced                         : Yes

Audio
ID                             : 2
Format                         : MPEG Audio
Format version                 : Version 1
Format profile                 : Layer 3
Codec ID                       : A_MPEG/L3
Codec ID/Hint                  : MP3
Duration                       : 1h 27mn
Bit rate mode                  : Constant
Bit rate                       : 160 Kbps
Channel(s)                     : 2 channels
Sampling rate                  : 44.1 KHz
Compression mode               : Lossy
Delay relative to video        : 460ms
Stream size                    : 99.9 MiB (7%)
Title                          : Latino
Writing library                : LAME3.82
Language                       : Spanish
Default                        : Yes



Tome un video 1080p de este grandioso documental con muy buena calidad y le empate el audio latino de otro video que conseguí en baja resolución. Tuve que hacer edición de audio y video y espero que todo haya quedado sincronizado correctamente ya que es la primera vez que hago este tipo de trabajo.



Link de descarga:






IMPORTANTE:
Cambiar la extensión de .RAR a .MKV

Zombies A Living History (2011)(Latino)(1080p)(MG)
50 Puntos Score: 10/10
Visitas: 1450 Favoritos: 5
Ver los usuarios que votaron...
2 Comentarios Zombies A Living History (2011)(Latino)(1080p)(MG)
Gracias, es un buen documental.
me fascina todo acerca de de los zombies gracias
Para dejar un comentario Registrate! o.. eres ya usuario? Accede!