Oops.. Este post tiene los enlaces eliminados!

Identi revisa las denuncias de los usuarios en busca de enlaces eliminados que no dejan descargar los archivos, este mensaje te informa que este post que estas viendo tiene los enlaces eliminados.

Usa el Buscador

Por favor, te recomendamos que uses el buscador para encontrar más alternativas.

Gravity Falls - S02E20 HdTV x264 Inglés 720p (mp4)

  • Categoría: Reciclaje
  • Publicado hace más de 9 meses
Gravity Falls Temporada 2 Episode 20


 Weirdmageddon 3: Take Back the Falls


2x20 HdTV-rip x264 Inglés 720p (mp4)







"Gravity Falls (Gravity Falls: Un verano de misterios en Hispanoamérica) es una serie de televisión animada creada por Alex Hirsch inicialmente para Disney Channel y más adelante para Disney XD, que se estrenó en Estados Unidos el 15 de junio de 2012.2 3 4 En Latinoamérica se mostró un pre-estreno el 30 de septiembre de 2012 y se estrenó oficialmente el 6 de octubre de 2012, mientras que en España se estrenó el 7 de junio de 2013." (fuente: Wikipedia)













Detalles:

Mejor más tarde que nunca.

Video HDTV-cap DXD con logotipo.

Audio original con subs en inglés opcionales (CC). 

Nota: el audio de la tele viene en 5.1 pero la serie no está nativo a 5.1 entonces fue downmix a stereo digital AC-3.

Si alguien lo traduce puede unirlo y verlo así :v



Detalles más tecnicos:

Format                                   : MPEG-4

Format profile                           : Base Media / Version 2

Codec ID                                 : mp42

File size                                : 555 MiB

Duration                                 : 43mn 56s

Overall bit rate mode                    : Variable

Overall bit rate                         : 1 765 Kbps

Movie name                               : Gravity Falls

Encoded date                             : UTC 2016-02-16 01:49:56

Tagged date                              : UTC 2016-02-16 01:49:56

Writing application                      : 


Video

ID                                       : 1

Format                                   : AVC

Format/Info                              : Advanced Video Codec

Format profile                           : [email protected]

Format settings, CABAC                   : Yes

Format settings, ReFrames                : 9 frames

Codec ID                                 : avc1

Codec ID/Info                            : Advanced Video Coding

Duration                                 : 43mn 56s

Bit rate                                 : 1 367 Kbps

Width                                    : 1 280 pixels

Height                                   : 720 pixels

Display aspect ratio                     : 16:9

Frame rate mode                          : Variable

Frame rate                               : 59.940 fps

Minimum frame rate                       : 58.824 fps

Maximum frame rate                       : 62.500 fps

Color space                              : YUV

Chroma subsampling                       : 4:2:0

Bit depth                                : 8 bits

Scan type                                : Progressive

Bits/(Pixel*Frame)                       : 0.025

Stream size                              : 430 MiB (77%)

Writing library                          : x264 core 142 r2479 dd79a61


Audio

ID                                       : 2

Format                                   : AAC

Format/Info                              : Advanced Audio Codec

Format profile                           : LC

Codec ID                                 : 40

Duration                                 : 43mn 56s

Bit rate mode                            : Variable

Bit rate                                 : 384 Kbps

Channel(s)                               : 2 channels

Channel positions                        : Front: L R

Sampling rate                            : 48.0 KHz

Compression mode                         : Lossy

Stream size                              : 121 MiB (22%)

Language                                 : English

Encoded date                             : UTC 2016-02-16 01:49:56

Tagged date                              : UTC 2016-02-16 01:49:56


Text

ID                                       : 3

Format                                   : Timed Text

Muxing mode                              : sbtl


Codec ID                                 : tx3g

Duration                                 : 42mn 13s

Bit rate mode                            : Variable

Bit rate                                 : 115 bps

Stream size                              : 35.5 KiB (0%)

Language                                 : English

Encoded date                             : UTC 2016-02-16 01:49:56

Tagged date                              : UTC 2016-02-16 01:49:56




Enlaces De Descarga



Saludos~!
Gravity Falls - S02E20 HdTV x264 Inglés 720p (mp4)
0 Puntos Score: 0/10
Visitas: 757 Favoritos: 0
0 Comentarios Gravity Falls - S02E20 HdTV x264 Inglés 720p (mp4)
Este post esta cerrado y no se permiten comentarios.
Para dejar un comentario Registrate! o.. eres ya usuario? Accede!