Oops.. Este post tiene los enlaces eliminados!

Identi revisa las denuncias de los usuarios en busca de enlaces eliminados que no dejan descargar los archivos, este mensaje te informa que este post que estas viendo tiene los enlaces eliminados.

Usa el Buscador

Por favor, te recomendamos que uses el buscador para encontrar más alternativas.

[720p]Modern Family S01E01[Latino][Dual]

  • Categoría: Reciclaje
  • Publicado hace más de 9 meses
[720p]Modern Family S01E01[Latino][Dual]



Sinopsis.

La serie gira en torno a tres familias relacionadas a través de Jay Pritchett y sus dos hijos, Claire Dunphy y Mitchell Pritchett. Jay Pritchett (Ed O'Neill), el patriarca, está casado con una mujer más joven, Gloria (Sofía Vergara), una apasionada madre, que, con la ayuda de Jay, cría a su hijo, Manny (Rico Rodriguez), ya que su padre biológico (y ex marido) Javier Delgado (Benjamin Bratt) es un padre ausente,y al pequeño Joe (Pierce Wallace) hijo de ambos, que nace en la temporada 4, en el capitulo 12.El nombre verdadero de Joe es Fulgencio pero lo llaman por su segundo nombre Joseph .Claire (Julie Bowen) trabaja para su padre en una empresa de armarios y está casada con Phil (Ty Burrell) un agente inmobiliario y autoproclamado como un padre cool ("guay" en España, "chévere" enHispanoamérica, "bacán" en Chile, "copado" en Argentina); tienen tres hijos: Haley (Sarah Hyland), la típica adolescente más preocupada por su estatus social que por sus estudios,[sup]32[/sup] Alex (Ariel Winter), la inteligente hija mediana[sup]33[/sup] y Luke (Nolan Gould), el poco convencional hijo pequeño.[sup]34[/sup] Mitchell (Jesse Tyler Ferguson), un abogado, y su pareja Cameron (Eric Stonestreet) han adoptado a una niña vietnamita, Lily (Aubrey Anderson-Emmons). En la primera temporada, los actores adultos recibían un salario de entre 30.000 y 90.000 dólares.[sup]35[/sup]
La serie tiene también algunos personajes recurrentes. Reid Ewing apareció en varios episodios como el novio de Haley, Dylan. Fred Willard interpretó al padre de Phil, Frank Dunphy, y fue nominado a los Premios Emmy como mejor actor invitado en una serie de comedia, pero perdió contra Neil Patrick Harris y su interpretación en Glee.Shelley Long ha aparecido en las dos primeras temporadas interpretando a la madre de Claire y Mitchell y ex esposa de Jay, DeDe Pritchett. . A partir de la temporada 5 Adam DeVine hace de Andy, canguro de Joe, del qual Haley esta secretamente enamorada,ya que el es un buen chico. El esta indeciso y en el último capítulo de la temporada 6, se ve como el le va a pedir matrimonio a una antigua novia(sabido Phil, el padre de Haley, que están enamorados los dos y intentándolo evitar). Nathan Lane hizo dos apariciones en la segunda temporada como el extravagante amigo de Cameron y Mitchell, Pepper Saltsman. Otros actores que han aparecido en la serie son Chazz Palminteri, que ha hecho dos apariciones como Shorty, un amigo de Jay, Benjamin Bratt como Javier, el exesposo de Gloria y padre biológico de Manny, Edward NortonMatt Dillon, David Cross, James MarsdenElizabeth BanksJudy GreerGreg Kinnear, entre otros. También el jugador de baloncesto Kobe Bryanthizo un cameo en el último episodio de la primera temporada: "Retrato familiar".

Capturas




Descripcion del video

Format                      : Matroska
Format version              : Version 4 / Version 2
File size                   : 493 MiB
Duration                    : 23mn 16s
Overall bit rate            : 2 962 Kbps
Video
Format                      : AVC
Format/Info                 : Advanced Video Codec
Format profile              : [email protected]
Format settings, CABAC      : Yes
Format settings, ReFrames   : 5 frames
Codec ID                    : V_MPEG4/ISO/AVC
Duration                    : 23mn 16s
Bit rate                    : 2 352 Kbps
Width                       : 1 280 pixels
Height                      : 720 pixels
Display aspect ratio        : 16:9
Frame rate mode             : Constant
Frame rate                  : 23.976 fps
Color space                 : YUV
Chroma subsampling          : 4:2:0
Bit depth                   : 8 bits
Language                    : English
Default                     : Yes

Audio #1
ID                          : 2
Format                      : AC-3
Format/Info                 : Audio Coding 3
Mode extension              : CM (complete main)
Format settings, Endianness : Big
Codec ID                    : A_AC3
Duration                    : 23mn 16s
Bit rate mode               : Constant
Bit rate                    : 256 Kbps
Channel(s)                  : 2 channels
Channel positions           : Front: L R
Sampling rate               : 44.1 KHz
Bit depth                   : 16 bits
Compression mode            : Lossy
Delay relative to video     : 900ms
Stream size                 : 42.6 MiB (9%)
Default                     : Yes
Forced                      : No

Audio #2
ID                          : 4
Format                      : AC-3
Format/Info                 : Audio Coding 3
Mode extension              : CM (complete main)
Format settings, Endianness : Big
Codec ID                    : A_AC3
Duration                    : 23mn 16s
Bit rate mode               : Constant
Bit rate                    : 384 Kbps
Channel(s)                  : 6 channels
Channel positions           : Front: L C R, Side: L R, LFE
Sampling rate               : 48.0 KHz
Bit depth                   : 16 bits
Compression mode            : Lossy
Stream size                 : 63.9 MiB (13%)
Language                    : English
Default                     : No


 
Enlaces De Descarga
[/font][/size][/color]

Contraseña: identi
[720p]Modern Family S01E01[Latino][Dual]
40 Puntos Score: 10/10
Visitas: 616 Favoritos: 0
Ver los usuarios que votaron...
6 Comentarios [720p]Modern Family S01E01[Latino][Dual]
Excelente aporte!!
Subiras las dem?
wow para 20minutos 493 megas es mucho te recomiendo que lo comviertas a x265 asi pesara menos, pero igual buena porte +10
@_Israel_ Gracias por pasar y pues primero terminare de subir esta primer temporada y ya ver?
@leddek ::CLOUDFLARE_ERROR_500S_BOX:: me sale ese error y no me deja avanzar podrias rebizar
@ema96 Si parece ser un problema de noref pero puedes pasarte a este post http://www.identi.li/index.php?topic=415122    
ahi estan los capitulos.
No encuentra los enlaces, le puedes dar una mirada para ver el error?
Para dejar un comentario Registrate! o.. eres ya usuario? Accede!