Tom Clancy The division - Agent Origins

  • Categoría: Off-Topic
  • Publicado hace más de 9 meses
Hola
Regresando a subir algo que no esta aun aqui, me encontre con este pedazo de corto sobre el juego que llega en marzo para las consolas de nueva generacion y PC, es bastante bueno y creo que todos los que jugamos la beta encontraremos muchas similitudes con el.

Espero les guste y les dejo algunos datos sobre el:

Audio - Ingles
Subs - Pegados Español
Tamaño 720*304
Peso: 138Mb
Formato: Mp4

Datos inutiles y tecnicos:

Video
ID                             : 1
Format                         : AVC
Format/Info                    : Advanced Video Codec
Format profile                 : [email protected]
Format settings, CABAC         : Yes
Format settings, ReFrames      : 4 frames
Codec ID                       : avc1
Codec ID/Info                  : Advanced Video Coding
Duration                       : 31mn 42s
Bit rate                       : 512 Kbps
Width                          : 720 pixels
Height                         : 304 pixels
Display aspect ratio           : 2.35:1
Frame rate mode                : Variable
Frame rate                     : 25.000 fps
Minimum frame rate             : 12.500 fps
Maximum frame rate             : 25.000 fps
Color space                    : YUV
Chroma subsampling             : 4:2:0
Bit depth                      : 8 bits
Scan type                      : Progressive
Bits/(Pixel*Frame)             : 0.094
Stream size                    : 112 MiB (81%)
Writing library                : x264 core 142 r2491 24e4fed
Encoding settings              : cabac=1 / ref=3 / deblock=1:0:0 / analyse=0x3:0x113 / me=hex / subme=7 / psy=1 / psy_rd=1.00:0.00 / mixed_ref=1 / me_range=16 / chroma_me=1 / trellis=1 / 8x8dct=1 / cqm=0 / deadzone=21,11 / fast_pskip=1 / chroma_qp_offset=-2 / threads=12 / lookahead_threads=2 / sliced_threads=0 / nr=0 / decimate=1 / interlaced=0 / bluray_compat=0 / constrained_intra=0 / bframes=3 / b_pyramid=2 / b_adapt=1 / b_bias=0 / direct=1 / weightb=1 / open_gop=0 / weightp=2 / keyint=250 / keyint_min=25 / scenecut=40 / intra_refresh=0 / rc_lookahead=40 / rc=abr / mbtree=1 / bitrate=512 / ratetol=1.0 / qcomp=0.60 / qpmin=0 / qpmax=69 / qpstep=4 / vbv_maxrate=17500 / vbv_bufsize=17500 / nal_hrd=none / filler=0 / ip_ratio=1.40 / aq=1:1.00
Encoded date                   : UTC 2016-02-12 20:17:47
Tagged date                    : UTC 2016-02-12 20:17:47
Color primaries                : BT.601 PAL
Transfer characteristics       : BT.709
Matrix coefficients            : BT.601

Audio
ID                             : 2
Format                         : AAC
Format/Info                    : Advanced Audio Codec
Format profile                 : LC
Codec ID                       : 40
Duration                       : 31mn 41s
Bit rate mode                  : Variable
Bit rate                       : 112 Kbps
Channel count                  : 2 channels
Channel positions              : Front: L R
Sampling rate                  : 48.0 KHz
Compression mode               : Lossy
Delay relative to video        : 80ms
Stream size                    : 25.5 MiB (18%)
Title                          : Stereo
Encoded date                   : UTC 2016-02-12 20:17:47
Tagged date                    : UTC 2016-02-12 20:17:47


Capturas:











Tom Clancy The division - Agent Origins
0 Puntos Score: 0/10
Visitas: 555 Favoritos: 0
1 Comentarios Tom Clancy The division - Agent Origins
Perdon, salio sin clave de cifrado, agreguen esto y podran descargarlo:

!mK0_MJ3urVY4Z6jdsQ7A3LtvT5iS41yUl4VcQ7diM9c
Para dejar un comentario Registrate! o.. eres ya usuario? Accede!