King Kong (1933-EUA-1080p-BRRIP-Dual-Lat+Sub-MEGA)



King Kong es una película de aventuras de 1933 dirigida por los estadounidenses Merian C. Cooper y Ernest B. Schoedsack y con Fay Wray, Robert Armstrong y Bruce Cabot como actores principales. La película fue producida por la compañía cinematográfica RKO Pictures y escrita por Ruth Rose y James Ashmore Creelman, basándose en una idea de Merian C. Cooper y Edgar Wallace.

Trata sobre el hallazgo de Kong, un gorila gigante, en una isla prehistórica perdida y sobre cómo fue capturado y llevado a la civilización contra su voluntad.



Título: King Kong
Año: 1933
Duración:100 min
País: EUA
Dirección:    
Merian caldwell Cooper
Ernest B. Schoedsack
Producción:
Merian C. Cooper
Ernest B. Schoedsack
Guion: Merian C.Cooper
James Ashmore Creelman
Ruth Rose
Edgar Wallace
Música: Max Steiner
Fotografía:
Edward Linden
J.O. Taylor
Vernon L. Walker
Protagonistas:
Fay Wray
Robert Armstrong
Bruce Cabot
Frank Reicher
Sam Hardy
Noble Johnson
Steve Clemente
James Flavin
Productora: RKO Radio Pictures
Género: Acción, Aventura, Drama, Terror, Novela de suspense

SINOPSIS


Un equipo de cine va a rodar una película a la misteriosa isla de Teschio, al este de Sumatra. Allí descubren la existencia de una civilización prehistórica y de una tribu ancestral que secuestra a la atractiva Ann, la actriz protagonista, para ofrecerla en sacrificio ritual a King, un gigantesco gorila. El animal se enamora de la chica, defendiéndola del ataque de criaturas antediluvianas antes de ser reducido por la expedición. Inmediatamente se decidirá transportar al asombroso simio a Nueva York, para ser exhibido públicamente. El contacto de King Kong con un mundo que no es el suyo y el amor que siente por Ann precipitarán trágicamente los acontecimientos.


TRAILER




General
 Format version : Version 4 / Version 2
 File size : 2.62 GiB
 Duration : 1h 44mn
 Overall bit rate : 3 594 Kbps
 Movie name : King Kong (1933) - 1080p
 
 Video
 ID : 1
 Format : AVC
 Format/Info : Advanced Video Codec
 Format profile : [email protected]
 Format settings, CABAC : Yes
 Format settings, ReFrames : 4 frames
 Codec ID : V_MPEG4/ISO/AVC
 Bit rate : 3 000 Kbps
 Width : 1 920 pixels
 Height : 1 080 pixels
 Display aspect ratio : 16:9
 Frame rate mode : Variable
 Color space : YUV
 Chroma subsampling : 4:2:0
 Bit depth : 8 bits
 Scan type : Progressive
 Writing library : x264 core 130 r2273 b3065e6
 Encoding settings : cabac=1 / ref=1 / deblock=1:-1:-1 / analyse=0x3:0x113 / me=hex / subme=2 / psy=1 / psy_rd=1.00:0.15 / mixed_ref=0 / me_range=16 / chroma_me=1 / trellis=0 / 8x8dct=1 / cqm=0 / deadzone=21,11 / fast_pskip=1 / chroma_qp_offset=0 / threads=12 / lookahead_threads=4 / sliced_threads=0 / nr=0 / decimate=1 / interlaced=0 / bluray_compat=0 / constrained_intra=0 / bframes=3 / b_pyramid=2 / b_adapt=1 / b_bias=0 / direct=1 / weightb=1 / open_gop=0 / weightp=1 / keyint=240 / keyint_min=24 / scenecut=40 / intra_refresh=0 / rc_lookahead=10 / rc=abr / mbtree=1 / bitrate=3000 / ratetol=1.0 / qcomp=0.60 / qpmin=0 / qpmax=69 / qpstep=4 / ip_ratio=1.40 / aq=1:1.00
 Default : Yes
 Forced : No
 Color primaries : BT.709
 Transfer characteristics : BT.709
 Matrix coefficients : BT.709
 
 Audio #1
 ID : 2
 Format : AC-3
 Format/Info : Audio Coding 3
 Mode extension : CM (complete main)
 Format settings, Endianness : Big
 Codec ID : A_AC3
 Duration : 1h 44mn
 Bit rate mode : Constant
 Bit rate : 192 Kbps
 Channel count : 1 channel
 Channel positions : Front: C
 Sampling rate : 48.0 KHz
 Bit depth : 16 bits
 Compression mode : Lossy
 Stream size : 143 MiB (5%)
 Language : Latin
 Default : Yes
 Forced : No
 
 Audio #2
 ID : 3
 Format : AC-3
 Format/Info : Audio Coding 3
 Mode extension : CM (complete main)
 Format settings, Endianness : Big
 Codec ID : A_AC3
 Duration : 1h 44mn
 Bit rate mode : Constant
 Bit rate : 384 Kbps
 Channel count : 1 channel
 Channel positions : Front: C
 Sampling rate : 48.0 KHz
 Bit depth : 16 bits
 Compression mode : Lossy
 Stream size : 287 MiB (11%)
 Language : English
 Default : No
 Forced : No
 
 Text #1
 ID : 4
 Format : PGS
 Muxing mode : zlib
 Codec ID : S_HDMV/PGS
 Codec ID/Info : The same subtitle format used on BDs/HD-DVDs
 Language : Latin
 Default : No
 Forced : No
 
 Text #2
 ID : 5
 Format : PGS
 Muxing mode : zlib
 Codec ID : S_HDMV/PGS
 Codec ID/Info : The same subtitle format used on BDs/HD-DVDs
 Language : English
 Default : No
 Forced : No

Sin contraseña




King Kong (1933-EUA-1080p-BRRIP-Dual-Lat+Sub-MEGA)
15 Puntos Score: 7.5/10
Visitas: 1296 Favoritos: 1
Ver los usuarios que votaron...
4 Comentarios King Kong (1933-EUA-1080p-BRRIP-Dual-Lat+Sub-MEGA)
Gracias por estas joyas
Increible muchas gracias!!  
Yo tengo las 3 versiones originales, aunque en DVD u.u
Para dejar un comentario Registrate! o.. eres ya usuario? Accede!