Spotlight (2015)|m1080p|x265|WEB-DL|488MB



Les presento mi propio ripeo con configuración exigente para FULL HD (1080p) x265. Exclusivo para quienes desean descargar esta película de forma rápida o para quienes tienen internet lento. A pesar de su tamaño la calidad es fantástica para su peso. Descarguen con confianza. PD: Trae subtíulos .srt aparte.



CAPTURAS












General
Complete name               : Spotlight.2015.m1080p.WEB-DL.x265.HEVC.AAC-Papelillio.mkv
Format                      : Matroska
Format version              : Version 4 / Version 2
File size                   : 488 MiB
Duration                    : 2h 9mn
Overall bit rate            : 529 Kbps
Encoded date                : UTC 2016-02-02 15:18:42
Writing application         : mkvmerge v7.9.0 ('Birds') 64bit
Writing library             : libebml v1.3.1 + libmatroska v1.4.2

Video
ID                          : 1
Format                      : HEVC
Format/Info                 : High Efficiency Video Coding
Format profile              : [email protected]@Main
Codec ID                    : V_MPEGH/ISO/HEVC
Duration                    : 2h 9mn
Bit rate                    : 462 Kbps
Width                       : 1 916 pixels
Height                      : 1 032 pixels
Display aspect ratio        : 1.85:1
Frame rate mode             : Constant
Frame rate                  : 23.976 (23976/1000) fps
Original frame rate         : 23.976 (24000/1001) fps
Color space                 : YUV
Chroma subsampling          : 4:2:0
Bit depth                   : 8 bits
Bits/(Pixel*Frame)          : 0.010
Stream size                 : 426 MiB (87%)
Writing library             : x265 1.8:[Windows][GCC 4.9.0][64 bit] 8bit
Encoding settings           : wpp / ctu=64 / min-cu-size=8 / max-tu-size=32 / tu-intra-depth=1 / tu-inter-depth=1 / me=3 / subme=3 / merange=57 / rect / no-amp / max-merge=3 / temporal-mvp / no-early-skip / rdpenalty=0 / no-tskip / no-tskip-fast / strong-intra-smoothing / no-lossless / no-cu-lossless / no-constrained-intra / no-fast-intra / open-gop / no-temporal-layers / interlace=0 / keyint=240 / min-keyint=24 / scenecut=40 / rc-lookahead=25 / lookahead-slices=0 / bframes=4 / bframe-bias=0 / b-adapt=2 / ref=3 / limit-refs=0 / weightp / no-weightb / aq-mode=1 / qg-size=32 / aq-strength=1.00 / cbqpoffs=0 / crqpoffs=0 / rd=4 / psy-rd=0.30 / rdoq-level=2 / psy-rdoq=1.00 / signhide / deblock / sao / no-sao-non-deblock / b-pyramid / cutree / rc=crf / crf=28.0 / qcomp=0.60 / qpmin=0 / qpmax=51 / qpstep=4 / ipratio=1.40 / pbratio=1.30
Default                     : Yes
Forced                      : No
Color range                 : Limited
Color primaries             : BT.709
Transfer characteristics    : BT.709
Matrix coefficients         : BT.709

Audio
ID                          : 2
Format                      : AAC
Format/Info                 : Advanced Audio Codec
Format profile              : LC
Codec ID                    : A_AAC
Duration                    : 2h 9mn
Bit rate                    : 64.8 Kbps
Channel(s)                  : 1 channel
Channel positions           : Front: C
Sampling rate               : 44.1 KHz
Frame rate                  : 43.066 fps (1024 spf)
Compression mode            : Lossy
Delay relative to video     : -83ms
Stream size                 : 59.8 MiB (12%)
Language                    : English
Default                     : Yes
Forced                      : No

Menu
00:00:00.000                : :1
00:08:22.085                : :2
00:14:32.122                : :3
00:21:53.104                : :4
00:27:40.160                : :5
00:35:50.108                : :6
00:45:40.156                : :7
00:49:14.120                : :8
00:53:23.161                : :9
00:59:38.161                : :10
01:05:31.139                : :11
01:10:49.124                : :12
01:17:32.110                : :13
01:23:32.137                : :14
01:30:05.155                : :15
01:34:29.085                : :16
01:42:54.132                : :17
01:50:59.117                : :18
01:55:52.118                : :19
02:01:31.166                : :20


Descarga por MEGA:


Descarga por ZippyShare:
Spotlight (2015)|m1080p|x265|WEB-DL|488MB
75 Puntos Score: 9.4/10
Visitas: 5476 Favoritos: 5
Ver los usuarios que votaron...
22 Comentarios Spotlight (2015)|m1080p|x265|WEB-DL|488MB
Gracias papelillio   q wena calidad increible peso Saludos!!!!!
gran calidad   gracias
fabuloso muchas gracias  
Probando como se ve, para aprovechar el peso, ver y borrar XD
Gracias. Se ve muy bien
esta buena tu microhd eres un jenio  
Gracias por compartir y gracias por las facilidades para bajar y verla de calidad!!!
buen aporte pero no lo puedo abrir con el vlc dice que no soporta el formato de video... alguna sugerencia??
graacias
muchassss gracias vamos a ver q tal!!!!
Excelente calidad de audio y video, no s?
@Papelillio Muy buen post pense que te habias ido ya que no veia que publicabas Saludos
Cita Papelillio: Mostrar
muchas gracias camarada, excelente aporte.
el ultimo enlace en zippyshare no funciona alguien que lo tenga
haceme un favor...metete tu ripeo en ese codec bien profundo en el cul0
broder no abre el archivo con mi reproductor, y que pereza instalar uno solo por ese ripeo, lastima porque el tama?
gracias....una pregunta....aun seguira subiendo peliculas en BD50 ?........
tarde pero pregunto lo mismo que @edtel20, cuando vas a empezar a subir pelis en BD50, me quedé a medias con las de Harry Potter, Star Wars y muchisimas mas. Un saludo campeon  esperando que sigas subiendo las BD50 ya que eres el mejor
Para dejar un comentario Registrate! o.. eres ya usuario? Accede!