South Park Temporada 19 | 10-10 | LATINO | MG







Peso: 85mb Aproximadamente
Resolución: 848 x 480
Capitulos: 10 - 10
Duracion: 25 minutos Aproximadamente
Idioma:  Latino
Producción: Comedy Central

General
Format                      : MPEG-4
Format profile              : Base Media
Codec ID                    : isom (isom/iso2/avc1/mp41)
File size                   : 79.4 MiB
Duration                    : 22mn 3s
Overall bit rate mode       : Variable
Overall bit rate            : 504 Kbps
Writing application         : Lavf55.36.100

Video
ID                          : 1
Format                      : AVC
Format/Info                 : Advanced Video Codec
Format profile              : [email protected]
Format settings, CABAC      : Yes
Format settings, ReFrames   : 4 frames
Codec ID                    : avc1
Codec ID/Info               : Advanced Video Coding
Duration                    : 22mn 2s
Bit rate                    : 374 Kbps
Width                       : 848 pixels
Height                      : 480 pixels
Display aspect ratio        : 16:9
Frame rate mode             : Constant
Frame rate                  : 23.976 (24000/1001) fps
Color space                 : YUV
Chroma subsampling          : 4:2:0
Bit depth                   : 8 bits
Scan type                   : Progressive
Bits/(Pixel*Frame)          : 0.038
Stream size                 : 59.0 MiB (74%)
Writing library             : x264 core 142 r2409 d6b4e63

Audio
ID                          : 2
Format                      : AAC
Format/Info                 : Advanced Audio Codec
Format profile              : LC
Codec ID                    : 40
Duration                    : 22mn 3s
Bit rate mode               : Variable
Bit rate                    : 96.0 Kbps
Maximum bit rate            : 700 Kbps
Channel(s)                  : 2 channels
Channel positions           : Front: L R
Sampling rate               : 44.1 KHz
Frame rate                  : 43.066 fps (1024 spf)
Compression mode            : Lossy
Stream size                 : 15.1 MiB (19%)
Default                     : Yes
Alternate group             : 1
Tagged date                 : UTC 2015-10-18 04:39:07















identi.li/chapine




South Park Temporada 19 | 10-10 | LATINO | MG
145 Puntos Score: 9.1/10
Visitas: 2944 Favoritos: 8
Ver los usuarios que votaron...
25 Comentarios South Park Temporada 19 | 10-10 | LATINO | MG
muchas gracias la tenia pero en ingles prefiero mil veces el latino me da flojera leer aveces
buen aporte hermanazo una pregunta solo tendra 10 capitulos esta temporada ???
Genial! Muchas gracias!
@william84 si te entiendo en las mismas estaba peto ya no :p

@ZEEF  
@DRAGONNNNN si por desgracia solo ser?
que gran  aportte
amigo no tienes the inbetweeners us
me dice que los archivos est?
hola.. todos los capitulos menos el 4 me dice que el archivo esta da?
@yixo Intenta actualizar tu winrar amigo estan en RAR5 instala 5.21 en adelante as?
@wili_64 Hola Wili acabo de bajar el archivo que dices que te da problemas y esta en perfecto estado quiz?
Descargado, sin problemas.



+10 estaba esperandola
vale tenias raz?
Cita ZEEF: Mostrar
aun con 7zip no logro extraerlos  
gracias patojo pizadito!!!  
@cincero Gracias ishto pisado XD
muchas gracias my friend
Gracias por el aporte.
Tenia el mismo problema al descomprimir, pero baje el 7zip y sin ningun problema los archivos ya estan listos para verse.
Gracias Chapine! Saludos desde Guanajuato Mexico!
Links caídos amigo  
Para dejar un comentario Registrate! o.. eres ya usuario? Accede!