At the Devils Door|2014|DVDRip|VOSE|LOLA



At the Devil's Door (2014)








SINOPSIS

At the Devil's Door nos cuenta como una hermosa agente inmobiliario (Leigh) trata de vender una casa donde sucedieron extraños sucesos en el pasado, en el tragging conoce a la problemática hija de la pareja a la que intenta vender esta casa. Cuando Leigh intenta ayudar a esta joven, se vera las caras con una extraña fuerza sobrenatural que aparentemente tiene planes para ambas?¿por que? una pregunta que se resolverá con terroríficas respuestas.


MEDIAINFO

Subtítulos español incrustados
General
Complete name                  : At the Devil's Door.avi
Format                         : AVI
Format/Info                    : Audio Video Interleave
File size                      : 681 MiB
Duration                       : 1h 33mn
Overall bit rate               : 1 023 Kbps
Movie name                     : At.the.Devils.Door.2014.720p.VOSE
Writing application            : Lavf55.33.100

Video
ID                             : 0
Format                         : AVC
Format/Info                    : Advanced Video Codec
Format profile                 : [email protected]
Format settings, CABAC         : Yes
Format settings, ReFrames      : 4 frames
Codec ID                       : H264
Duration                       : 1h 33mn
Bit rate                       : 890 Kbps
Width                          : 854 pixels
Height                         : 356 pixels
Display aspect ratio           : 2.40:1
Frame rate mode                : Variable
Frame rate                     : 25.000 fps
Color space                    : YUV
Chroma subsampling             : 4:2:0
Bit depth                      : 8 bits
Scan type                      : Progressive
Bits/(Pixel*Frame)             : 0.117
Stream size                    : 588 MiB (86%)
Writing library                : x264 core 142 r2389 956c8d8

Audio
ID                             : 1
Format                         : MPEG Audio
Format version                 : Version 1
Format profile                 : Layer 3
Mode                           : Joint stereo
Mode extension                 : MS Stereo
Codec ID                       : 55
Codec ID/Hint                  : MP3
Duration                       : 1h 33mn
Bit rate mode                  : Constant
Bit rate                       : 128 Kbps
Channel(s)                     : 2 channels
Sampling rate                  : 44.1 KHz
Compression mode               : Lossy
Stream size                    : 85.2 MiB (13%)
Alignment                      : Aligned on interleaves
Interleave, duration           : 26 ms (0.65 video frame)
Writing library                : LAME3.99.5









nuts
At the Devils Door|2014|DVDRip|VOSE|LOLA
10 Puntos Score: 10/10
Visitas: 703 Favoritos: 0
Ver los usuarios que votaron...
7 Comentarios At the Devils Door|2014|DVDRip|VOSE|LOLA
Links fuera de linea... si podes resubirlos, gracias!
Gracias por compartir pero tampoco me aparece el link... ingres?
Se usar los gestores y navegador, no pude, intente varias veces y no pude. Por eso mi mje. No es que quiero hacerte renegar, igual que ahora que pusiste el link directo, por ej ocurre que se repite el archivo 3 veces de 676.06 mb y otro que esta de baja, asique algo mal con el link debe haber, igual ahora la estoy bajando, te mantengo al tanto, gracias por la peli.
@tekzucaFND Bien, luego de tu descarga informame como te fu?
Todo en orden despues de que subiste los links por separado, muchisimas gracias!!!!
Para dejar un comentario Registrate! o.. eres ya usuario? Accede!