Elsewhere|2009|DVDRip|LOLA



Elsewhere 2009









Sinopsis


Una joven desaparece luego de citarse con algunos hombres desconocidos. Pero su mejor amiga es la única preocupada por encontrarla.

Mediainfo



General
Complete name                  : Elsewhere.mp4
Format                         : MPEG-4
Format profile                 : Base Media
Codec ID                       : isom
File size                      : 701 MiB
Duration                       : 1h 46mn
Overall bit rate mode          : Variable
Overall bit rate               : 924 Kbps

Video
ID                             : 1
Format                         : AVC
Format/Info                    : Advanced Video Codec
Format profile                 : [email protected]
Format settings, CABAC         : Yes
Format settings, ReFrames      : 3 frames
Codec ID                       : avc1
Codec ID/Info                  : Advanced Video Coding
Duration                       : 1h 46mn
Bit rate                       : 788 Kbps
Maximum bit rate               : 1 669 Kbps
Width                          : 720 pixels
Height                         : 400 pixels
Display aspect ratio           : 16:9
Frame rate mode                : Constant
Frame rate                     : 29.970 fps
Color space                    : YUV
Chroma subsampling             : 4:2:0
Bit depth                      : 8 bits
Scan type                      : Progressive
Bits/(Pixel*Frame)             : 0.091
Stream size                    : 598 MiB (85%)

Audio
ID                             : 2
Format                         : AAC
Format/Info                    : Advanced Audio Codec
Format profile                 : LC
Codec ID                       : 40
Duration                       : 1h 46mn
Bit rate mode                  : Variable
Bit rate                       : 132 Kbps
Maximum bit rate               : 165 Kbps
Channel(s)                     : 2 channels
Channel positions              : Front: L R
Sampling rate                  : 48.0 KHz
Compression mode               : Lossy
Stream size                    : 100 MiB (14%)










nuts
Elsewhere|2009|DVDRip|LOLA
12 Puntos Score: 6/10
Visitas: 934 Favoritos: 0
Ver los usuarios que votaron...
1 Comentarios Elsewhere|2009|DVDRip|LOLA
No conocia esta peli
Para dejar un comentario Registrate! o.. eres ya usuario? Accede!