Into The Badlands S01E01 720p WEB-DL x264 [Dual]














Duracion: 45 minutos aprox
Audio: Español Latino AC3 192KBPS 
Fuente del Audio: TV  (Agradecimientos al usuario: Kaiohsama quien compartió los audios)
Fuente del Video: 720Pp WEB-DL

NOTA: EL AUDIO NO ES DE LOS MEJORES PERO ES LATINO.

Into The Badlands S01E01 720p WEB-DL x264 [Dual]
40 Puntos Score: 10/10
Visitas: 1667 Favoritos: 1
Ver los usuarios que votaron...
10 Comentarios Into The Badlands S01E01 720p WEB-DL x264 [Dual]
muchas gracias
no es x264 es x265      
es x265?? antes de descargar
Cita peterparkr: Mostrar


eneral
Unique ID                   : 231548663434819395774814154096116597528 (0xAE32A683D6A8BFB5A4EE8E4FF7AD8318)
Complete name               : C:UsersxmadexDownloadsInto.The.Badlands.S01E01.The.Fort.720p.WEB-DL.x264-[MULVAcoded].mkv
Format                      : Matroska
Format version              : Version 4 / Version 2
File size                   : 508 MiB
Duration                    : 44mn 0s
Overall bit rate            : 1 613 Kbps
Encoded date                : UTC 2016-01-10 15:41:03
Writing application         : mkvmerge v8.7.0 ('All of the above') 64bit
Writing library             : libebml v1.3.3 + libmatroska v1.4.4
Cover                       : Yes
Attachments                 : cover.jpg

Video
ID                          : 1
Format                      : AVC
Format/Info                 : Advanced Video Codec
Format profile              : [email protected]
Format settings, CABAC      : Yes
Format settings, ReFrames   : 16 frames
Codec ID                    : V_MPEG4/ISO/AVC
Duration                    : 44mn 0s
Bit rate                    : 1 322 Kbps
Width                       : 1 280 pixels
Height                      : 720 pixels
Display aspect ratio        : 16:9
Frame rate mode             : Constant
Frame rate                  : 23.976 (24000/1001) fps
Color space                 : YUV
Chroma subsampling          : 4:2:0
Bit depth                   : 8 bits
Scan type                   : Progressive
Bits/(Pixel*Frame)          : 0.060
Stream size                 : 416 MiB (82%)
Writing library             : x264 core 146 r2538 121396c
Encoding settings           : cabac=1 / ref=16 / deblock=1:0:0 / analyse=0x3:0x113 / me=umh / subme=8 / psy=1 / psy_rd=1.00:0.00 / mixed_ref=1 / me_range=16 / chroma_me=1 / trellis=1 / 8x8dct=1 / cqm=0 / deadzone=21,11 / fast_pskip=1 / chroma_qp_offset=-2 / threads=6 / lookahead_threads=3 / sliced_threads=0 / nr=0 / decimate=1 / interlaced=0 / bluray_compat=0 / constrained_intra=0 / bframes=16 / b_pyramid=2 / b_adapt=2 / b_bias=0 / direct=3 / weightb=1 / open_gop=0 / weightp=2 / keyint=240 / keyint_min=23 / scenecut=40 / intra_refresh=0 / rc_lookahead=50 / rc=crf / mbtree=1 / crf=25.0 / qcomp=0.60 / qpmin=0 / qpmax=69 / qpstep=4 / ip_ratio=1.40 / aq=1:1.00
Default                     : Yes
Forced                      : No

Audio #1
ID                          : 2
Format                      : AC-3
Format/Info                 : Audio Coding 3
Mode extension              : CM (complete main)
Format settings, Endianness : Big
Codec ID                    : A_AC3
Duration                    : 44mn 0s
Bit rate mode               : Constant
Bit rate                    : 192 Kbps
Channel(s)                  : 2 channels
Channel positions           : Front: L R
Sampling rate               : 48.0 KHz
Frame rate                  : 31.250 fps (1536 spf)
Compression mode            : Lossy
Stream size                 : 60.4 MiB (12%)
Language                    : Spanish
Default                     : Yes
Forced                      : No

Audio #2
ID                          : 3
Format                      : AAC
Format/Info                 : Advanced Audio Codec
Format profile              : LC
Codec ID                    : A_AAC
Duration                    : 44mn 0s
Bit rate                    : 96.0 Kbps
Channel(s)                  : 2 channels
Channel positions           : Front: L R
Sampling rate               : 48.0 KHz
Frame rate                  : 46.875 fps (1024 spf)
Compression mode            : Lossy
Stream size                 : 30.2 MiB (6%)
Language                    : English
Default                     : No
Forced                      : No
descargado y visto es x264 me parece en high profile mi laptop vieja no lo corrio, pero sin problemas en mi pc mas nueva, muchas gracias! video 10 - audio latino 5
Gracias por el aporte  
Es dual o solo latino ? Es que me gustan ver mas las cosas en su idioma original que doblado
Cita uchihajota: Mostrar

era solo latino
Cita xmadex: Mostrar
Para dejar un comentario Registrate! o.. eres ya usuario? Accede!