Burying the ex | 720p | VOSE | LB



Burying the ex (2014)









Se muere la novia del bato y este hace su vida luego de superarlo pero por algún motivo la novia sale de su tumba y regresa a buscar al bato para seguir siendo su novia.


MEDIAINFO


General
Complete name                  : Burying the ex.mp4
Format                         : MPEG-4
Format profile                 : Base Media
Codec ID                       : isom
File size                      : 701 MiB
Duration                       : 1h 29mn
Overall bit rate mode          : Variable
Overall bit rate               : 1 095 Kbps

Video
ID                             : 1
Format                         : AVC
Format/Info                    : Advanced Video Codec
Format profile                 : [email protected]
Format settings, CABAC         : Yes
Format settings, ReFrames      : 4 frames
Codec ID                       : avc1
Codec ID/Info                  : Advanced Video Coding
Duration                       : 1h 29mn
Bit rate                       : 997 Kbps
Maximum bit rate               : 5 602 Kbps
Width                          : 1 280 pixels
Height                         : 720 pixels
Display aspect ratio           : 16:9
Frame rate mode                : Constant
Frame rate                     : 23.976 fps
Color space                    : YUV
Chroma subsampling             : 4:2:0
Bit depth                      : 8 bits
Scan type                      : Progressive
Bits/(Pixel*Frame)             : 0.045
Stream size                    : 638 MiB (91%)

Audio
ID                             : 2
Format                         : AAC
Format/Info                    : Advanced Audio Codec
Format profile                 : LC
Codec ID                       : 40
Duration                       : 1h 29mn
Bit rate mode                  : Variable
Bit rate                       : 93.8 Kbps
Maximum bit rate               : 103 Kbps
Channel(s)                     : 2 channels
Channel positions              : Front: L R
Sampling rate                  : 48.0 KHz
Compression mode               : Lossy
Stream size                    : 60.1 MiB (9%)
Language                       : English












nuts
Burying the ex | 720p | VOSE | LB
15 Puntos Score: 5/10
Visitas: 1437 Favoritos: 1
Ver los usuarios que votaron...
2 Comentarios Burying the ex | 720p | VOSE | LB
la pelicula no es gran cosa pero por ver a Daddario  
Para dejar un comentario Registrate! o.. eres ya usuario? Accede!