Varias Películas|DVD-BDRip|LOLABITS|Construcción



Alice through the lookind glass (1998)








A modern adaptation of the classic children's story "Alice through the Looking Glass" written by Lewis Carol, which continued on from the popular "Alice in Wonderland" story. This time Alice is played by the mother, who falls asleep while reading the the bedtime story to her daughter. Walking through the Looking Glass, Alice finds herself in Chessland, a magical and fun world. There she meets the Red and White Queens, as well as many other amusing friends on her journey across the chessboard countryside onto become a crowned queen. IMDB


MEDIAINFO
Cita: Mostrar











nuts



According to Greta










También conocida como Surviving Summer ó Greta. Greta tiene 17 años, es una chica lista, hermosa, rebelde y llena de sarcasmo. Junto con su diario lleno de "Cosas que hacer antes de morir" y "Formas de Morir" es obligada a pasar el verano con sus abuelos en New Jersey, ella rápidamente muestra sus sentimientos de enojo al revelares su intención de quitarse la vida cuando cumpla 18. Greta se enamora de un cocinero carismático llamado Julie (Ross). Pero una casi catástrofe le da a Greta una llamada de alerta y le demuestra como sus propias acciones afectan a aquellos a su alrededor. Greta junto con la emoción de su primer romance de verano, poco a poco despoja de sus defensas, dejando a una mujer debajo de su caparazón. Wikipedia


MEDIAINFO

Cita: Mostrar










nuts




Burying the ex (2014) VOSE









Se muere la novia del bato y este hace su vida luego de superarlo pero por algún motivo la novia sale de su tumba y regresa a buscar al bato para seguir siendo su novia.


MEDIAINFO


General
Complete name                  : Burying the ex.mp4
Format                         : MPEG-4
Format profile                 : Base Media
Codec ID                       : isom
File size                      : 701 MiB
Duration                       : 1h 29mn
Overall bit rate mode          : Variable
Overall bit rate               : 1 095 Kbps

Video
ID                             : 1
Format                         : AVC
Format/Info                    : Advanced Video Codec
Format profile                 : [email protected]
Format settings, CABAC         : Yes
Format settings, ReFrames      : 4 frames
Codec ID                       : avc1
Codec ID/Info                  : Advanced Video Coding
Duration                       : 1h 29mn
Bit rate                       : 997 Kbps
Maximum bit rate               : 5 602 Kbps
Width                          : 1 280 pixels
Height                         : 720 pixels
Display aspect ratio           : 16:9
Frame rate mode                : Constant
Frame rate                     : 23.976 fps
Color space                    : YUV
Chroma subsampling             : 4:2:0
Bit depth                      : 8 bits
Scan type                      : Progressive
Bits/(Pixel*Frame)             : 0.045
Stream size                    : 638 MiB (91%)

Audio
ID                             : 2
Format                         : AAC
Format/Info                    : Advanced Audio Codec
Format profile                 : LC
Codec ID                       : 40
Duration                       : 1h 29mn
Bit rate mode                  : Variable
Bit rate                       : 93.8 Kbps
Maximum bit rate               : 103 Kbps
Channel(s)                     : 2 channels
Channel positions              : Front: L R
Sampling rate                  : 48.0 KHz
Compression mode               : Lossy
Stream size                    : 60.1 MiB (9%)
Language                       : English












nuts


Notas
0.0. Asegurate de tener abierto JD2 ó MiPony antes de quejarte por enlaces caídos.
0.5. He probado los enlaces antes de publicar y FUNCIONAN.
1.0. No acepto pedidos especiales.
1.5. Lee todo el post antes de quejarte de algo.
2.0. No proporciono enlaces directos.

Varias Películas|DVD-BDRip|LOLABITS|Construcción
25 Puntos Score: 8.3/10
Visitas: 2651 Favoritos: 4
Ver los usuarios que votaron...
3 Comentarios Varias Películas|DVD-BDRip|LOLABITS|Construcción
GRACIAS
Si doy las gracias, siempre.
Aunque no la baje
La flaquita morocha de bahia de la perla de guera y en 4:3
No
GRACIAS
Para dejar un comentario Registrate! o.. eres ya usuario? Accede!