Beast Wars y Beast Machines-20Gb-DVDRip - Dual -Mg





Hola amigos de Identi... En esta ocasión traigo un proyecto en el que duré varios meses, dos series que marcaron infancia de muchos y me incluyo...


Descargué los episodios en latino de Identi varias veces, pero siempre se veía con una calidad de imagen bastante baja, así que me dí a la tarea de buscarlos en DVDRip con mejor calidad y por fín, así que empecé a sincronizarlos uno a uno, están con audio dual Inglés y Español Latino pero sin subtítulos.


Curiosamente cuando estaba realizando este proyecto, otro amigo de Identi publicó Beast Wars en calidad similar o mejor que la mía y por lo que acabo de comprobar la descargué y suprimí la mia ya que esta solo tiene audio latino, igualmente ya le dije a este usuario por si acaso :roll  


Beast Wars si tene un MATERIAL EXTRA que se encuentra en inglés, lamentablemte no encontré subtitulos ni doblaje.


La subida es propia, espero que la disfruten porque por lo menos Beast Machines no se consigue en esta calidad en la WEB en Audio Latino (También tiene audio Inglés).


Ambas temporadas están COMPLETAS!!!







Espero que la disfruten.... 





BEAST WARS





BEAST MACHINES











SINOPSIS



Beast Wars es una de las primeras series creadas en 3D para TV por la compañía canadiense Mainframe Entertainment, conocida en castellano como "La Guerra de las Bestias" y "Beasties" en países como Canadá, que continuaba con el legado de Transformers. Tiene una secuela llamada Beast Machines.
En España se retransmitió por Telecinco y sólo se llegaron a doblar las dos primeras temporadas y poco de la tercera. En América Latina sí se tradujeron las tres temporadas completas. En México fue retransmitida por Canal 5. En Venezuela sus capítulos fueron retransmitidos a través de RCTV. En República Dominicana fue transmitida por Telesistema. En el Perú empezó siendo transmitida por América TV quedando inconclusa para ser luego retransmitida y completada por Canal A. En Argentina, la señal Magic Kids de dibujos infantiles fue la encargada de retransmitir sus dos primeras sagas. En Chile, el canal Mega transmitió la serie. Más tarde, Cartoon Network retransmitió para varios países de Latinoamérica por televisión de pago.


                                                                                                                             
Beast Machines: Transformers es una serie animada, secuela directa de Beast WarsHasbro decide continuar con el éxito de la anterior serie con una nueva línea de figuras, acompañadas de una nueva serie de televisión en 3D también realizada por Mainframe Entertainment, la cual cualitativamente, gráficamente hablando, es mejor que la anterior. En Japón fue conocida como Beast Wars Returns.

                                                                                                                                 (Tomado de Wikipedia)




MEDIA INFO


Esa es la ficha técnica general de la película, se informa formato, peso, calidad, para conocer la calidad real de la misma, para aquellos siempre solicitan datos puntuales.

Los de Beast Wars pesan en promedio 250 Mb y los de Beast Machines 300 Mb. 

Imagen totalmente limpia sin logos de ningún canal.



                   BEAST WARS


Format                                   : AVI
Format/Info                              : Audio Video Interleave
File size                                : 235 MiB
Duration                                 : 21mn 6s
Overall bit rate                         : 1 555 Kbps
Writing application                      : VirtualDubMod 1.5.4.1 (build 2066/release)
Writing library                          : VirtualDubMod build 2066/release

Video
ID                                       : 0
Format                                   : MPEG-4 Visual
Format profile                           : Advanced [email protected]
Format settings, BVOP                    : 2
Format settings, QPel                    : No
Format settings, GMC                     : No warppoints
Format settings, Matrix                  : Default (H.263)
Muxing mode                              : Packed bitstream
Codec ID                                 : XVID
Codec ID/Hint                            : XviD
Duration                                 : 21mn 6s
Bit rate                                 : 1 288 Kbps
Width                                    : 512 pixels
Height                                   : 384 pixels
Display aspect ratio                     : 4:3
Frame rate                               : 29.970 fps
Color space                              : YUV
Chroma subsampling                       : 4:2:0
Bit depth                                : 8 bits
Scan type                                : Progressive
Compression mode                         : Lossy
Bits/(Pixel*Frame)                       : 0.219
Stream size                              : 194 MiB (83%)
Writing library                          : XviD 1.0.0 RC1 (Niltze) (UTC 2004-01-26)

Audio
ID                                       : 1
Format                                   : MPEG Audio
Format version                           : Version 1
Format profile                           : Layer 3
Codec ID                                 : 55
Codec ID/Hint                            : MP3
Duration                                 : 21mn 6s
Bit rate mode                            : Constant
Bit rate                                 : 256 Kbps
Channel(s)                               : 2 channels
Sampling rate                            : 48.0 KHz
Compression mode                         : Lossy
Stream size                              : 38.7 MiB (16%)
Alignment                                : Aligned on interleaves
Interleave, duration                     : 33 ms (1.00 video frame)
Interleave, preload duration             : 504 ms




BEAST MACHINES


Format                                   : Matroska


Format version                           : Version 4 / Version 2
File size                                : 315 MiB
Duration                                 : 21mn 29s
Overall bit rate                         : 2 052 Kbps
Encoded date                             : UTC 2015-06-19 00:37:40
Writing application                      : mkvmerge v7.7.0 ('Six Voices') 64bit built on Feb 28 2015 23:39:33
Writing library                          : libebml v1.3.1 + libmatroska v1.4.2
DURATION                                 : 00:21:29.024000000
NUMBER_OF_FRAMES                         : 40282
NUMBER_OF_BYTES                          : 30936576
_STATISTICS_WRITING_APP                  : mkvmerge v7.7.0 ('Six Voices') 64bit built on Feb 28 2015 23:39:33
_STATISTICS_WRITING_DATE_UTC             : 2015-06-19 00:37:40
_STATISTICS_TAGS                         : BPS DURATION NUMBER_OF_FRAMES NUMBER_OF_BYTES

Video
ID                                       : 2
Format                                   : MPEG-4 Visual
Format profile                           : Advanced [email protected]
Format settings, BVOP                    : Yes
Format settings, QPel                    : No
Format settings, GMC                     : No warppoints
Format settings, Matrix                  : Custom
Codec ID                                 : V_MS/VFW/FOURCC / XVID
Codec ID/Hint                            : XviD
Duration                                 : 21mn 29s
Width                                    : 688 pixels
Height                                   : 512 pixels
Display aspect ratio                     : 4:3
Frame rate mode                          : Constant
Frame rate                               : 23.976 fps
Color space                              : YUV
Chroma subsampling                       : 4:2:0
Bit depth                                : 8 bits
Scan type                                : Progressive
Compression mode                         : Lossy
Writing library                          : XviD 1.2.0SMP (UTC 2006-01-08)
Default                                  : Yes
Forced                                   : No

Audio #1
ID                                       : 1
Format                                   : AAC
Format/Info                              : Advanced Audio Codec
Format profile                           : HE-AACv2 / HE-AAC / LC
Codec ID                                 : A_AAC
Duration                                 : 21mn 29s
Channel(s)                               : 2 channels / 1 channel / 1 channel
Channel positions                        : Front: L R / Front: C / Front: C
Sampling rate                            : 44.1 KHz / 44.1 KHz / 22.05 KHz
Compression mode                         : Lossy
Delay relative to video                  : 43ms
Title                                    : Español Latino
Language                                 : Spanish
Default                                  : Yes
Forced                                   : No

Audio #2
ID                                       : 3
Format                                   : AC-3
Format/Info                              : Audio Coding 3
Mode extension                           : CM (complete main)
Format settings, Endianness              : Big
Codec ID                                 : A_AC3
Duration                                 : 21mn 29s
Bit rate mode                            : Constant
Bit rate                                 : 192 Kbps
Channel(s)                               : 2 channels
Channel positions                        : Front: L R
Sampling rate                            : 48.0 KHz
Bit depth                                : 16 bits
Compression mode                         : Lossy
Stream size                              : 29.5 MiB (9%)
Title                                    : Inglés
Language                                 : English
Default                                  : No
Forced                                   : No


CAPTURAS


Quiero aclarar que todas las capturas son propias, sacadas directamente de las películas, para que haya mejor claridad sobre el material a descargar
























LINK DE DESCARGA



Descarga con el JDownloader.




BEAST WARS Y BEAST MACHINES



Beast Wars







Beast Machines








                            CONTRASEÑA

                               TEKKEN007








Para mi, mas que los puntos, lo 


importante son sus comentarios 


para poder mejorar, con un 


gracias es suficiente..













Beast Wars y Beast Machines-20Gb-DVDRip - Dual -Mg
74 Puntos Score: 9.3/10
Visitas: 2618 Favoritos: 23
Ver los usuarios que votaron...
17 Comentarios Beast Wars y Beast Machines-20Gb-DVDRip - Dual -Mg
+10 Ya las tengo, pero con la calidad creo que las bajare nuevamente, excelente post mi amigo
De casualidad no eres Tekken que jugaba antes MU ? xD
muchas gracias por el aporte!!!
Excelente aporte Muchas Gracias +10
Muchisimas gracias!!!
@MoYaNT No se que sea MU, de pelea solo juego Tekken y Street Fighter... jajajaja
Ok ok, te confundi con un conocido que igual se ponia tekken y es colombiano , saludos
Muchas gracias amigo por las series, que excelente es esta serie
Saludos
exelente aporte,gracias
Muchisimas gracias
el capitulo 7 de beast machine, esta defectuso
dan ganas de llorar las bestias transformers
Una de las primeras series 3d y la mejor. Para mi Beast Wars  es mucho mejor que Beast Machines(no en imagen por obvias razones) y tuve suerte de verla completa cuando la pasaron por primera vez en HBO si alguien lo recuerda. Otro aportazo  
@3dgeminis concretamente beast wars se la desayuna a beast machine en historia, beast machine fue oficialmente la primer serie de transformers que vi por eso le guardo cari?
Para dejar un comentario Registrate! o.. eres ya usuario? Accede!