carlosja
"Volvi!!"
Oops.. Este post tiene los enlaces eliminados!

Identi revisa las denuncias de los usuarios en busca de enlaces eliminados que no dejan descargar los archivos, este mensaje te informa que este post que estas viendo tiene los enlaces eliminados.

Usa el Buscador

Por favor, te recomendamos que uses el buscador para encontrar más alternativas.

Creed La leyenda de Rocky [2015] sub 1,2 GB mega

  • Categoría: Reciclaje
  • Publicado hace más de 11 meses




Sinopsis
Adonis Johnson no llegó a conocer a su padre, el campeón del mundo de los pesos pesados Apollo Creed, que falleció antes de que él naciera. Sin embargo, nadie puede negar que lleva el boxeo en la sangre, por lo que pone rumbo a Filadelfia, el lugar en el que se celebró el legendario combate entre su padre y Rocky Balboa. Una vez allí, Adonis busca a Rocky y le pide que sea su entrenador. A pesar de que este insiste en que ya ha dejado ese mundo para siempre, Rocky ve en Adonis la fuerza y determinación que tenía su enconado rival, y que terminó por convertirse en su mejor amigo. Finalmente, acepta entrenarle a pesar de estar librando su propio combate contra un rival más letal que cualquiera a los que se enfrentó en el cuadrilátero.





Genero : DramaDeporte
Directores : Ryan Coogler
Escritores : Ryan CooglerAaron Covington
Reparto : Michael B. JordanSylvester StalloneTessa ThompsonPhylicia RashadAndre WardTony BellewRitchie CosterJacob 'Stitch' DuranGraham McTavishMalik BazilleRicardo McGillGabe RosadoWood HarrisBuddy OsbornRupal Pujara




capturas!









Resolucion                     :  1280x512
General
Format                         : MPEG-4
Format profile                 : Base Media / Version 2
Codec ID                       : mp42
File size                      : 1.22 GiB
Duration                       : 2h 13mn
Overall bit rate mode          : Variable
Overall bit rate               : 1 315 Kbps
Encoded date                   : UTC 2015-12-25 20:55:08
Tagged date                    : UTC 2015-12-25 20:55:08
Writing application            : HandBrake 0.10.2 2015061000

Video
ID                             : 1
Format                         : AVC
Format/Info                    : Advanced Video Codec
Format profile                 : [email protected]
Format settings, CABAC         : Yes
Format settings, ReFrames      : 4 frames
Codec ID                       : avc1
Codec ID/Info                  : Advanced Video Coding
Duration                       : 2h 13mn
Bit rate                       : 1 152 Kbps
Width                          : 1 280 pixels
Height                         : 512 pixels
Display aspect ratio           : 2.500
Frame rate mode                : Variable
Frame rate                     : 29.970 fps
Minimum frame rate             : 29.960 fps
Maximum frame rate             : 29.990 fps
Color space                    : YUV
Chroma subsampling             : 4:2:0
Bit depth                      : 8 bits
Scan type                      : Progressive
Bits/(Pixel*Frame)             : 0.059
Stream size                    : 1.07 GiB (87%)
Writing library                : x264 core 142 r2491 24e4fed

Encoded date                   : UTC 2015-12-25 20:55:08
Tagged date                    : UTC 2015-12-25 20:55:08
Color range                    : Limited
Color primaries                : BT.709
Transfer characteristics       : BT.709
Matrix coefficients            : BT.709

Audio
ID                             : 2
Format                         : AAC
Format/Info                    : Advanced Audio Codec
Format profile                 : LC
Codec ID                       : 40
Duration                       : 2h 13mn
Bit rate mode                  : Variable
Bit rate                       : 160 Kbps
Channel(s)                     : 2 channels
Channel positions              : Front: L R
Sampling rate                  : 48.0 KHz
Compression mode               : Lossy
Stream size                    : 152 MiB (12%)
Title                          : Stereo / Stereo








Creed La leyenda de Rocky [2015] sub 1,2 GB mega
36 Puntos Score: 7.2/10
Visitas: 8588 Favoritos: 3
Ver los usuarios que votaron...
14 Comentarios Creed La leyenda de Rocky [2015] sub 1,2 GB mega
Gracias por el aporte. Veremos a ver qu?
Ahora falta la secuela de los hijos de rocky, enfrentandose con el hijo de apollo creed, y luego a toda su descendencia de Balboa, y de los Creed +10000 puntos, , claro cuando salgan las secuelas  
buen dia perdo por mi pregunta : tiene subtitulos gracias
@carloscs hola si pegados a la peli,en las capturas se ven.
mil disculpas y gracias por tu tiempo
Tengo entendido que ser?
Buen aporte !!!!!!
Excelente aporte .!!!!! Se agradece  
Gracias por el aporte, a mi padre le encantan las de Balboa!!  
hola en la mitad de la peli los subtitulos estan mal sincronisados y la peli no llega al finalllll
@tangho Gracias por avisar, casi la bajo!!!
Para dejar un comentario Registrate! o.. eres ya usuario? Accede!