Spectre 007 | Dvdscreener | Estreno| Subtitulado














Un críptico mensaje del pasado envía a James Bond (Daniel Craig) a una misión no autorizada, para destapar una misteriosa y siniestra organización. Esta nueva amenaza para el Gobierno británico podría acabar con la paz y la seguridad de todo el planeta. Por eso, para obtener la información necesaria y desactivar los planes terroristas, los servicios secretos encargarán al conflictivo y desobediente Agente Bond esta misión. 

007 viajará a Ciudad de México y finalmente a Roma, donde conocerá a Lucia Sciarra (Monica Bellucci), la bella y peligrosa viuda de un criminal infame. Cuando Bond se infiltra en una reunión secreta, descubrirá una siniestra organización conocida como SPECTRE. Será a medida que se adentre en el corazón de SPECTRE, como averiguará la conexión escalofriante que existe con el enemigo que busca: Franz Oberhauser (Christoph Waltz).

Mientras tanto, en Londres, una nueva dirección en la agencia complica todavía más las cosas. Max Denbigh (Andrew Scott), el nuevo jefe del Centro de Seguridad Nacional, cuestiona las acciones de Bond así como la relevancia del MI6. Por su parte, Bond, que se caracteriza por su comportamiento impredecible y contrario a las órdenes, recluta de manera encubierta a Eve Moneypenny (Naomie Harris) y a Q (Ben Whishaw) para que le ayuden a encontrar a Madeleine Swann (Léa Seydoux), la hija de su antiguo némesis Mr. White (Jesper Christensen). El motivo: él puede tener la clave para desenmarañar la red de SPECTRE. Como hija de un criminal, ella entiende a Bond de una forma en la que la mayoría no puede.

Nueva película basada en el agente del Servicio Secreto creado por Ian Fleming, 007. Cada vez más experimentado y ágil con los enfrentamientos cuerpo a cuerpo, y con su estilo único entre martinis, mujeres, persecuciones, y mucha acción, en esta nueva entrega seguiremos conociendo los orígenes de James Bond, que sigue tratando de salvar a su país y no morir en el intento. 







General
Complete name : Spectre.2015.DVDScr.XVID.AC3.HQ.Hive-CM8.avi
Format : AVI
Format/Info : Audio Video Interleave
Format profile : OpenDML
File size : 2.10 GiB
Duration : 2h 52mn
Overall bit rate : 1 748 Kbps
Writing application : Nandub v1.0rc2
Writing library : Nandub build 1853/release

Video
ID : 0
Format : MPEG-4 Visual
Format profile : Advanced [email protected]
Format settings, BVOP : 2
Format settings, QPel : Yes
Format settings, GMC : No warppoints
Format settings, Matrix : Default (H.263)
Muxing mode : Packed bitstream
Codec ID : XVID
Codec ID/Hint : XviD
Duration : 2h 28mn
Bit rate : 1 759 Kbps
Width : 720 pixels
Height : 304 pixels
Display aspect ratio : 2.35:1
Frame rate : 29.970 fps
Color space : YUV
Chroma subsampling : 4:2:0
Bit depth : 8 bits
Scan type : Progressive
Compression mode : Lossy
Bits/(PixelFrame) : 0.268
Stream size : 1.82 GiB (87%)
Writing library : XviD 1.2.1 (UTC 2008-12-04)

Audio
ID : 1
Format : AC-3
Format/Info : Audio Coding 3
Mode extension : CM (complete main)
Format settings, Endianness : Big
Codec ID : 2000
Duration : 2h 52mn
Source duration : 2h 28mn
Bit rate mode : Constant
Bit rate : 256 Kbps
Channel(s) : 2 channels
Channel positions : Front: L R
Sampling rate : 48.0 KHz
Bit depth : 16 bits
Compression mode : Lossy
Delay relative to video : 30ms
Stream size : 271 MiB (13%)
Alignment : Split accross interleaves
Interleave, duration : 33 ms (1.00 video frame)
Interleave, preload duration : 500 ms


































Oprima aqui para el subtitulo

Amigos recuerden dejar puntos. Eso es lo que nos permite evaluar si hacemos un buen trabajo para ustedes
Spectre 007 | Dvdscreener | Estreno| Subtitulado
65 Puntos Score: 9.3/10
Visitas: 4240 Favoritos: 1
Ver los usuarios que votaron...
25 Comentarios Spectre 007 | Dvdscreener | Estreno| Subtitulado
Cita Ale6921: Mostrar
Muchas gracias!!!!!
Se ve excelente, esperando subtitulos, gracias
ojala salgan sub gracias x el aporte los sub que hay no van con esta version
Otra filtrada, a este paso atar wars 7 sale en screener gracias por la subida.
muchas gracias!!  
Cita DARKLUIS10: Mostrar

Por lo que le?
dejo el enlace para los subtitulos de esta pelicula, ya los prob?
Cita orochi_h: Mostrar
@NAVA1976  Gracias por los puntos que te disfrutes la peli

@orochi_h  Gracias por los subtitulos y por los puntos.

@kike333 Gracias a ti por pasar por aqui y por los puntos
@wiseg  Gracias a ti por pasar por aqui

@DARKLUIS10 Ojala yse filtre. La quiero ver pero no quiero ir al cine

@yinaso  Ya salieron unos subs. El amogo orochi los postio
muchas gracias
un millon de gracias excelente aporte de diez!!!!!!!
Cita Leoceleste: Mostrar

aca tenes la direccion del sub

http://www.subdivx.com/X6XNDUxNTc5X-spectre-2015.html
Se ve excelente y los subtitulos que dejaste de subdivx le van perfectos . ( soy novato no tengo puntos ) Muchas gracias  y felices fiestas .  
muchas gracias!!!
10 para vos, saludos
Para dejar un comentario Registrate! o.. eres ya usuario? Accede!