Airwolf (lobo del aire)3° temp (Avi-xvid)




Airwolf (lobo del aire)
tercera temporada

Audio :Ingles

(sin subtitulos)






Ave cesar gente hoy les traigo la tercera temporada de lobo del aire (algo casi inconsegible,hasta ahora) 

el audio es ingles y NO hay subtitulos disponibles,

si alguien los tiene y los quiere compartir bienvenido sean


PD:el primer capitulo se ve y se escucha bastante mal


********************************************************************************
bueno gente este es el ultimo post de año,espero que les Hayan servido y/o gustado mis aportes...
feliz navidad y feliz AÑo nuevo!!!

ENjOY!!!





-.¸-,.-~*'¨¯R¨'*·h~-.i¸-,N.-~*'¨o¯¨'C·~-M¸-,.C*'¨¯¨'*·~-.¸-


Airwolf:
,llamada Lobo del Aire en Latinoamerica y El Helicoptero en España, fue una serie de ciencia ficción de origen norteamericano estrenado en el año 1984 para la señal televisiva CBS. Algunos de sus directores fueron Donald P. Bellisario (Creator), Virgil W. Vogel, Sutton Roley, Alan J. Levi, Harvey S. Laidman, Bernard L. Kowalski, Ray Austin, Donald A. Baer, Donald P. Bellisario, Georg Fenady, Bernard McEveety, Tom Blank, Daniel Haller, Don Medford. Mientras que en el guión participaban Donald P. Bellisario, Rick Kelbaugh, Westbrook Claridge, Chester Krumholz y en reparto principal teniamos a Jan-Michael Vincent, Alex Cord, Ernest Borgnine, Jean Bruce Scott, Deborah Pratt y Eugene Roch.













Tamaño: 350mb y 400mb  x capitulo
Audio: ingles 
Subtítulos: NO

Formato:AVI-XVID
capitulos 17 (1link x capitulo)


*** informacion del Archivo ***


*** VIDEO INFO ***
Input Type : XVID
Input Size : 352 x 272
Output Type : YV12
Output Size : 352 x 272
Decoder Type : GVC
FrameRate(Frame/sec) : 0.00 (29.97)


*** AUDIO INFO ***
SampleRate(Sample/sec) : 48000
BitRate(Bit/sample) : 16
Channels : 2
KBitRate(KBit/sec) : 128



General
Complete name                          
Format                                   : AVI
Format/Info                              : Audio Video Interleave
File size                                : 383 MiB
Duration                                 : 47mn 9s
Overall bit rate                         : 1 136 Kbps
Writing library                          : MPEG Mediator OpenDML AVI Plugin release

Video
ID                                       : 0
Format                                   : MPEG-4 Visual
Format profile                           : [email protected]
Format settings, BVOP                    : No
Format settings, QPel                    : No
Format settings, GMC                     : No warppoints
Format settings, Matrix                  : Default (H.263)
Codec ID                                 : XVID
Codec ID/Hint                            : XviD
Duration                                 : 47mn 9s
Bit rate                                 : 1 000 Kbps
Width                                    : 352 pixels
Height                                   : 272 pixels
Display aspect ratio                     : 1.294
Frame rate                               : 29.970 fps
Color space                              : YUV
Chroma subsampling                       : 4:2:0
Bit depth                                : 8 bits
Scan type                                : Progressive
Compression mode                         : Lossy
Bits/(Pixel*Frame)                       : 0.348
Stream size                              : 337 MiB (88%)
Writing library                          : XviD 0.0.09 (UTC 2003-03-25)

Audio
ID                                       : 1
Format                                   : MPEG Audio
Format version                           : Version 1
Format profile                           : Layer 3
Mode                                     : Joint stereo
Mode extension                           : MS Stereo
Codec ID                                 : 55
Codec ID/Hint                            : MP3
Duration                                 : 47mn 9s
Bit rate mode                            : Constant
Bit rate                                 : 128 Kbps
Channel(s)                               : 2 channels
Sampling rate                            : 48.0 KHz
Compression mode                         : Lossy
Stream size                              : 43.2 MiB (11%)
Alignment                                : Split accross interleaves
Interleave, duration                     : 100 ms (3.00 video frames)



















Carpeta en mega:

son 17 link cada link corresponde a un capitulo!









Airwolf (lobo del aire)3° temp (Avi-xvid)
0 Puntos Score: 0/10
Visitas: 1405 Favoritos: 1
20 Comentarios Airwolf (lobo del aire)3° temp (Avi-xvid)
y las primeras 2
@joseincv  estan en identi posteadas y en latino
@super300 si ingles!, somos muchos los que sabemos ingles y nos gusta el audio original  
podes subir la primera temporada. ya que estan caido los link
Exelente Gracias amigo por casualidad tendras la temp 4 ?
manya_87 - hace m?
@manya_87 Pero al menos en mi punto de vista, lo comparte, no como muchos que solo hacen pedidos para descargas y bueno al menso alguen se animo a poner al go de Lobo, Felicidades amigo..@rhinocmc  
Cita asderun: Mostrar
por ''compartirlo'' como dicen uds el uploader original borro los archivos , por eso ya no estan online . Mira el punto de vista del uploader original: Ahhh mira este se cree vivo que me roba mi aporte , entonces lo borro . y quien se jode ? el que descarga gracias a los que se llevan los aportes de una web a otra sin ningun permiso .
@manya_87 Al menos alguien debi?
@manya_87 por lo que veo te quedaste caliente por algo con @rhinocmc ,ya que defendes a los uploader seria bueno un comentario positivo,por lo menos en este post que se ve que los archivos los subio el  ,para mi interner es eso el espiritu de compartir no importa quien lo suba o lo comparta a mi me da lo mismo mientra me sirva! ja!!
@23marsupia cuando te tomes la molestia de subir algo creo que no te gustaria que se lo lleven a otra web sin TU PERMISO . Solo eso nada mas.
Cita asderun: Mostrar
Cita manya_87: Mostrar
ja jajaj y vos hablas que recien tenes un post deja de joder y anda a chupale el culo a los uploader a otro lado.
 PD @rhinocmc hacel un favor a la comunidad de identi Y borra y bloque a este pelotudo (manya_87 ) por favor!!!!!!
Cita 23marsupia: Mostrar
con tu comentario ya se ve que tipo de persona eres... no puedes mantener un dialogo sin insultar . La dejo x aca ay que no me interesa discutir con una persona que nolo sabe hacer.
Son mucha la diferencia entre remoteador y ser uploader. borre los link de lobo, ya que en ning?
@victor_104 pedirte permiso.... pero quien sos el due?
Cita rhinocmc: Mostrar
@victor_104  te sientes lo suficientemente bajo de autoestima que tienes que insultarme a mi o a los demas, das lastima... y a hasta aca llego no vales la pena.
PD:esta es la clase de persona que sos!
Para dejar un comentario Registrate! o.. eres ya usuario? Accede!