Oops.. Este post tiene los enlaces eliminados!

Identi revisa las denuncias de los usuarios en busca de enlaces eliminados que no dejan descargar los archivos, este mensaje te informa que este post que estas viendo tiene los enlaces eliminados.

Usa el Buscador

Por favor, te recomendamos que uses el buscador para encontrar más alternativas.

?Para qu? sirve un Oso? [DVDRip 2011] [espa?ol]

  • Categoría: Reciclaje
  • Publicado hace más de 5 años

¿Para qué sirve un Oso? [DVDRip 2011] [Comedia]



TÍTULO ORIGINAL: ¿Para qué sirve un oso?
AÑO: 2011
DURACIÓN: 100 min.
PAÍS: [España]
DIRECTOR: Tom Fernández
GUIÓN: Tom Fernández
MÚSICA: Mauricio Villavecchia
FOTOGRAFÍA: Arnau Valls
REPARTO: Javier Cámara, Gonzalo de Castro, Emma Suárez, Jesse Johnson, Geraldine Chaplin, Oona Chaplin, Sira García
PRODUCTORA: Versatil Cinema / Alta Producción / TV3 / TVE
GÉNERO: Comedia | Naturaleza


PREMIOS:
 2011: Festival de Málaga: Mejor director, actriz secundaria (Geraldine Chaplin), montaje


Info Rip
Format : AVI
Format/Info : Audio Video Interleave
Format profile : OpenDML
File size : 1.01 GiB
Duration : 1h 32mn
Overall bit rate : 1 562 Kbps
Writing application : Lavf52.78.4

Video
ID : 0
Format : MPEG-4 Visual
Format profile : Advanced [email protected]
Format settings, BVOP : 2
Format settings, QPel : No
Format settings, GMC : No warppoints
Format settings, Matrix : Default (H.263)
Muxing mode : Packed bitstream
Codec ID : DX50
Codec ID/Hint : DivX 5
Duration : 1h 32mn
Bit rate : 70.5 Kbps
Width : 720 pixels
Height : 306 pixels
Display aspect ratio : 2.35:1
Frame rate : 25.000 fps
Color space : YUV
Chroma subsampling : 4:2:0
Bit depth : 8 bits
Scan type : Progressive
Compression mode : Lossy
Bits/(Pixel*Frame) : 0.013
Stream size : 46.8 MiB (5%)
Writing library : XviD 1.2.1 (UTC 2008-12-04)

Audio
ID : 1
Format : AC-3
Format/Info : Audio Coding 3
Mode extension : CM (complete main)
Codec ID : 2000
Duration : 1h 32mn
Bit rate mode : Constant
Bit rate : 448 Kbps
Channel(s) : 6 channels
Channel positions : Front: L C R, Side: L R, LFE
Sampling rate : 48.0 KHz
Bit depth : 16 bits
Compression mode : Lossy
Stream size : 1.75 MiB (0%)
Alignment : Aligned on interleaves
Interleave, duration : 351 ms (8.78 video frames)

Alejandro y Guillermo son dos hermanos asturianos enamorados de la Naturaleza desde que eran niños. Alejandro es un prestigioso zoólogo de carácter aventurero que investiga la vida salvaje y vive en los árboles como un animal más. Guillermo es un biólogo de prestigio internacional, que ha recibido multitud de premios; un día descubre un brote verde en la Antártida y, convencido de que la batalla está perdida, lo abandona todo y regresa a Asturias. Una vez allí, busca a su hermano Alejandro en el bosque en el que vive. Desde la llegada de Guillermo al bosque, los ecosistemas sentimentales de los personajes se verán alterados.







?Para qu? sirve un Oso? [DVDRip 2011] [espa?ol]
5 Puntos Score: 5/10
Visitas: 2596 Favoritos: 0
Ver los usuarios que votaron...
5 Comentarios ?Para qu? sirve un Oso? [DVDRip 2011] [espa?ol]
La segunda parte del archivo no aparece, solo est?
NO ESTAN BIEN LOS ENLACES.  NO DESCARGAR
en esta estan todos los enlaces caidos y no funciona nada bien
gracias por el aporte
Para dejar un comentario Registrate! o.. eres ya usuario? Accede!