Paranormal Activity The Ghost Dimension 1080web-Dl


SIPNOSIS


La familia Fleege, formada por Ryan y Emilie, una pareja joven con una hija pequeña de 6 años, Leia, acaba de mudarse de casa. Ryan es un diseñador de videojuegos que se ha mudado junto a su familia a Palo Alto para trabajar en Rockstar Games. Su hermano Mike, vive justo al lado. 

En la nueva casa, entre las cosas que dejaron los anteriores inquilinos, descubren una caja repleta de cintas de vídeo y que contiene también una cámara cuyo uso es un tanto complejo. El contenido de las cintas muestra extrañas imágenes de dos niñas, Kristi y Katie, que habitaban la casa muchos años atrás. Será entonces cuando comiencen a ocurrir fenómenos inexplicables y sobrenaturales relacionados con los malignos espíritus que habitan en la casa.

Presentada al estilo de falso documental, Paranormal Activity: Dimensión fantasma es la nueva historia de esta terrorífica saga, que se centra en el tormento que sufre esta familia cuando un espíritu empieza a merodear por la casa y decide hacerles sufrir y jugar moviendo o tirando objetos a su paso. Será gracias a la cámara especial que puede ver espíritus, como la familia proteja a su hija de esta entidad maligna con un siniestro plan. Y es que, cuando miran a través su lente, empezarán a ver la actividad paranormal que sucede a su alrededor, incluyendo el resurgimiento de la joven Katie y Kristi.

Esta última entrega de la saga la dirige el debutante en la dirección Gregory Plotkin, que había trabajado como ayudante de montaje en Cadena de favores y Guerra mundial Z. El reparto lo componen Chris J. Murray (Bad Roomies, Failing Better Now), Brittany Shaw (State of Georgia, En la cuerda floja), Dan Gill (El gurú de las bodas), Olivia Taylor Dudley (Transcendence, El dictador) y Michael Krawic (Una rubia muy legal 2).



[mediainfo]
Video
ID : 1
Format : AVC
Format/Info : Advanced Video Codec
Format profile : [email protected]
Format settings, CABAC : Yes
Format settings, ReFrames : 4 frames
Codec ID : V_MPEG4/ISO/AVC
Duration : 1h 37mn
Bit rate : 4 646 Kbps
Width : 1 912 pixels
Height : 1 072 pixels
Display aspect ratio : 16:9
Frame rate mode : Constant
Frame rate : 23.976 fps
Color space : YUV
Chroma subsampling : 4:2:0
Bit depth : 8 bits
Scan type : Progressive
Bits/(Pixel*Frame) : 0.095
Stream size : 3.18 GiB (91%)
Title : Paranormal.Activity.The.Ghost.Dimension.2015.UNRATED.1080 >>
.WEB-DL.DD5.1.H264-RARBG
Language : English
Default : Yes
Forced : No
Color range : Limited
Color primaries : BT.709
Transfer characteristics : BT.709
Matrix coefficients : BT.709

Audio
ID : 2
Format : AC-3
Format/Info : Audio Coding 3
Mode extension : CM (complete main)
Format settings, Endianness : Big
Codec ID : A_AC3
Duration : 1h 37mn
Bit rate mode : Constant
Bit rate : 384 Kbps
Channel(s) : 6 channels
Channel positions : Front: L C R, Side: L R, LFE
Sampling rate : 48.0 KHz
Frame rate : 31.250 fps (1536 spf)
Compression mode : Lossy
Stream size : 269 MiB (7%)
Title : Paranormal.Activity.The.Ghost.Dimension.2015.UNRATED.1080 >>
.WEB-DL.DD5.1.H264-RARBG
Language : English
Default : Yes
Forced : No

Text
ID : 3
Format : UTF-8
Codec ID : S_TEXT/UTF8
Codec ID/Info : UTF-8 Plain Text
Language : English
Default : Yes
Forced : No

TRAILER




VER VIDEO DE MUESTRA AQUI:
http://www62.zippyshare.com/v/wLwKBg2m/file.html ..................................................................

SUBTITULOS BUSCAR EN: http://www.subdivx.com/



Capturas

Paranormal Activity The Ghost Dimension 1080web-Dl
25 Puntos Score: 8.3/10
Visitas: 2403 Favoritos: 4
Ver los usuarios que votaron...
3 Comentarios Paranormal Activity The Ghost Dimension 1080web-Dl
GRACIAS AMIGO, PERO BAJO POR TORRENT, NO SE PORQUE MIER.... ZIPISHARE ME BAJA A UNA VELOCIDAD LASTIMOSA
muchas gracias la esperaba
Para dejar un comentario Registrate! o.. eres ya usuario? Accede!