Airwolf (lobo del aire)2° temp (mkv)




Airwolf (lobo del aire)
Segunda temporada

MKV







-.¸-,.-~*'¨¯R¨'*·h~-.i¸-,N.-~*'¨o¯¨'C·~-M¸-,.C*'¨¯¨'*·~-.¸-


Airwolf:
,llamada Lobo del Aire en Latinoamerica y El Helicoptero en España, fue una serie de ciencia ficción de origen norteamericano estrenado en el año 1984 para la señal televisiva CBS. Algunos de sus directores fueron Donald P. Bellisario (Creator), Virgil W. Vogel, Sutton Roley, Alan J. Levi, Harvey S. Laidman, Bernard L. Kowalski, Ray Austin, Donald A. Baer, Donald P. Bellisario, Georg Fenady, Bernard McEveety, Tom Blank, Daniel Haller, Don Medford. Mientras que en el guión participaban Donald P. Bellisario, Rick Kelbaugh, Westbrook Claridge, Chester Krumholz y en reparto principal teniamos a Jan-Michael Vincent, Alex Cord, Ernest Borgnine, Jean Bruce Scott, Deborah Pratt y Eugene Roch.













Tamaño: 390mb x capitulo
Audio: ingles,latino
Subtítulos:  Español Latino 

Formato:MKV

*** informacion del Archivo ***

*** VIDEO INFO ***
Input Type : XVID
Input Size : 512 x 384
Output Type : YV12
Output Size : 512 x 384
Decoder Type : GVC
FrameRate(Frame/sec) : 0.00 (23.98)


*** AUDIO INFO ***
SampleRate(Sample/sec) : 44100
BitRate(Bit/sample) : 16
Channels : 2
KBitRate(KBit/sec) : 128

******** Informacion general **********

Format                                   : Matroska
Format version                           : Version 4 / Version 2
File size                                : 391 MiB
Duration                                 : 48mn 15s
Overall bit rate mode                    : Variable
Overall bit rate                         : 1 132 Kbps
Encoded date                             : UTC 2013-11-21 16:00:35
Writing application                      : mkvmerge v6.5.0 ('Isn't she lovely') built on Oct 20 2013 12:50:05
Writing library                          : libebml v1.3.0 + libmatroska v1.4.1

Video
ID                                       : 1
Format                                   : MPEG-4 Visual
Format profile                           : [email protected]
Format settings, BVOP                    : No
Format settings, QPel                    : No
Format settings, GMC                     : No warppoints
Format settings, Matrix                  : Default (H.263)
Codec ID                                 : V_MS/VFW/FOURCC / XVID
Codec ID/Hint                            : XviD
Duration                                 : 48mn 15s
Bit rate                                 : 851 Kbps
Width                                    : 512 pixels
Height                                   : 384 pixels
Display aspect ratio                     : 4:3
Frame rate mode                          : Constant
Frame rate                               : 23.976 fps
Color space                              : YUV
Chroma subsampling                       : 4:2:0
Bit depth                                : 8 bits
Scan type                                : Progressive
Compression mode                         : Lossy
Bits/(Pixel*Frame)                       : 0.181
Stream size                              : 294 MiB (75%)
Writing library                          : XviD 1.0.3 (UTC 2004-12-20)
Default                                  : Yes
Forced                                   : No

Audio #1
ID                                       : 2
Format                                   : MPEG Audio
Format version                           : Version 1
Format profile                           : Layer 3
Codec ID                                 : A_MPEG/L3
Codec ID/Hint                            : MP3
Duration                                 : 48mn 15s
Bit rate mode                            : Constant
Bit rate                                 : 128 Kbps
Channel(s)                               : 2 channels
Sampling rate                            : 44.1 KHz
Compression mode                         : Lossy
Stream size                              : 44.2 MiB (11%)
Language                                 : Spanish
Default                                  : Yes
Forced                                   : No

Audio #2
ID                                       : 3
Format                                   : MPEG Audio
Format version                           : Version 1
Format profile                           : Layer 3
Mode                                     : Joint stereo
Mode extension                           : MS Stereo
Codec ID                                 : A_MPEG/L3
Codec ID/Hint                            : MP3
Duration                                 : 48mn 14s
Bit rate mode                            : Variable
Bit rate                                 : 130 Kbps
Nominal bit rate                         : 160 Kbps
Channel(s)                               : 2 channels
Sampling rate                            : 48.0 KHz
Compression mode                         : Lossy
Stream size                              : 44.9 MiB (11%)
Writing library                          : LAME3.97 
Encoding settings                        : -m j -V 4 -q 2 -lowpass 17.5 --abr 160
Default                                  : No
Forced                                   : No


Agradecimientos:

kuneytercero 











Los link no son mios solo comparto!

Carpeta en mega:








Airwolf (lobo del aire)2° temp (mkv)
30 Puntos Score: 10/10
Visitas: 2205 Favoritos: 6
Ver los usuarios que votaron...
20 Comentarios Airwolf (lobo del aire)2° temp (mkv)
conseguite la primera temporada chabon, no la tendras??
perdon pero no me acordaba que se  calleron los link  
GRACIAS por el genial aporte. Esto no hay en tan tremenda calidad
amigo tenes todas las temporadas ?
Muchas gracias! Gran aporte! Me salvaste el fin de semana. Un saludo
QUE TEMPORADA TENES EN LATINO Y CUAL NO ?.
Estas fueron subidas por el amigo rotwailer, en que p?
gracias totales....
Gracias, ojala puedas subir las demas
HOLA rhinocmc encontre la fuente de estos capitulos pero tiene los link estan caido la primera temporada en latino. supongo que vos lo tenes . no ? podria subirlo . muchas gracias
Si yo tambien encontre el link y el correo de la persona que subio esta temporada y la primera, pero esta ultima tambien estan caidos los enlaces, tambien quedo de subir las otras temporadas, bueno aca les dejo el correo, claro con el permiso del creador de este post, para que entre todos le escribamos, pues yo ya lo hice, para que suba las demas temporadas y claro la temporada 1 que estan caidos los enlaces, aca les dejo el correo [email protected]
Muchas gracias. como cargo los sutitulos?
no hay novedad por la primera temporada en latino . todavia ?
Para dejar un comentario Registrate! o.. eres ya usuario? Accede!