La cage aux folles (solo audio latino)

La cage aux folles (solo audio latino)










Renato Baldi y Albin Mougeotte son una pareja de homosexuales maduros, ambos forman una familia en la que han criado desde niño a Laurent, el hijo biológico de Renato con una amiga. Llevan una vida abiertamente homosexual, Albin trabaja como artista transformista, con el nombre de Zazà Napoli, en el cabaret de ambiente homosexual que ambos regentan y Renato dirige, La cage aux folles, junto al que tienen su domicilio.

La trama comienza cuando Laurent comunica a Renato que se quiere casar con una chica que ha conocido en la universidad y que desean hacer inmediatamente la petición de mano para que se conozcan las familias. El problema es que la chica pertenece a una familia muy tradicional en la que el padre es diputado de un partido ultraconservador y pide a su padre que finjan ser una familia heterosexual para evitar problemas antes de la boda. Piden a la madre biológica, Simone, que venga para simular un matrimonio tradicional y en principio intentan evitar que Albin participe en el evento, ya que debido a su amaneramiento sería fácilmente identificable como gay. Esto crea un conflicto en la pareja ya que Albin, que se considera "la verdadera madre", se siente apartado y cree que se avergüenzan de él. Finalmente deciden que participe en la reunión con el papel de tío.

La situación se complica cuando Simone no puede llegar a tiempo y Albin se presenta vestido de ama de casa típica, diciendo que es la madre delante de los futuros suegros. Todos los intentos de ocultación y disimulo generan multitud de situaciones cómicas. Y todo se lleva al extremo cuando descubierto el engaño, varios periodistas, que habían recibido un soplo de que el diputado conservador se encontraba en un conocido club gay, se apuestan en la puerta y tienen que travestirlo para salir del local sin ser reconocido y evitarle un escándalo.

Finalmente se superan todos los obstáculos y se celebra la boda.

  


Audio 1 PCM 


Format                                   : Wave

File size                                 : 923 MiB

Duration                                 : 1h 31mn

Overall bit rate mode               : Constant

Overall bit rate                        : 1 411 Kbps


                      Audio

Format                                   : PCM

Format settings, Endianness       : Little

Format settings, Sign                : Signed

Codec ID                                 : 1

Duration                                  : 1h 31mn

Bit rate mode                          : Constant

Bit rate                                   : 1 411.2 Kbps

Channel(s)                              : 2 channels

Sampling rate                          : 44.1 KHz

Bit depth                                 : 16 bits

Stream size                             : 923 MiB (100%)




Audio 2 MP3


Format                                : MPEG Audio

File size                               : 209 MiB

Duration                              : 1h 31mn

Overall bit rate mode             : Constant

Overall bit rate                      : 320 Kbps

Writing library                       : LAME3.99.5


Audio

Format                                 : MPEG Audio

Format version                      : Version 1

Format profile                        : Layer 3

Mode                                    : Joint stereo

Mode extension                      : MS Stereo

Duration                                : 1h 31mn

Bit rate mode                         : Constant

Bit rate                                  : 320 Kbps

Channel(s)                              : 2 channels

Sampling rate                         : 44.1 KHz

Compression mode                  : Lossy

Stream size                            : 209 MiB (100%)

Writing library                         : LAME3.99.5



AUDIO 1 PCM

Enlaces De Descarga



AUDIO 2 MP3
Enlaces De Descarga
La cage aux folles (solo audio latino)
10 Puntos Score: 10/10
Visitas: 1095 Favoritos: 1
Ver los usuarios que votaron...
Más del Autor...
No se encontraron más posts
19 Comentarios La cage aux folles (solo audio latino)
Cita Andres321: Mostrar
Recorda que es solo el audio.

https://mega.nz/#!2QhVWCrL!U8FtHBQfXe18l6fpcMncZRTZ0GKtfakQzo5XgeH24XQ
Cita licallanga: Mostrar
Recorda que es solo el audio.

https://mega.nz/#!2QhVWCrL!U8FtHBQfXe18l6fpcMncZRTZ0GKtfakQzo5XgeH24XQ
647 mb solo para el audio? no comprendo es audio para que formato? si alguien me puede orientar muchas gracias
647 mb solo para el audio? no comprendo es audio para que formato? si alguien me puede orientar muchas gracias -
Cita sureo777: Mostrar
Si tenes raz?
y el video de donde lo podemos bajar?  
Voy a subir un audio mas liviano pero de menos calidad aunque la verdad no noto la perdida de calidad debe ser por la compresi?
muchas gracias por tu aclaracion y te pido de favor que ahora que subas el otro audio (mp3) me menciones para regresar por el me interesa mucho ya que tengo la pelicula en frances pero me gustaria tambien tenerla en latino. por cualquier cosa que se pueda hacer muchas gracias
Cita sureo777: Mostrar
ya postee el audio latino en mp3.
Gracias amigo (ya lo hab?
Cita alvaroruiz: Mostrar
Cita alvaroruiz: Mostrar
@Diego2402 Amigo Diego, parece que la versi?
Cita Diego2402: Mostrar

 

no el audio no esta sincronizado con el video
POR FAVOR EL AUDIO PARA Q VERSION ENCAJA? HE BAJADO VERSIONES BRIP Y NO LE VA
Para dejar un comentario Registrate! o.. eres ya usuario? Accede!