Los juegos del hambre Sinsajo parte 2




Sinopsis
En una operación especial contra el todopoderoso 
Capitolio, el Distrito 13 consigue rescatar a Peeta Mellark (Josh Hutcherson). Pero el delicado, romántico y 
detallista "Chico del pan" ya no es la misma persona que 
Katniss Everdeen (Jennifer Lawrence) conoció. ¿Qué le 
han hecho? Después de mucho tratamiento y de terapia, 
el estado de Peeta parece mejorar. No obstante, su 
actitud ya no es la del joven con esperanza y fortaleza 
que era capaz de calmar las peores pesadillas de Katnis
s. Por eso, la heroína de los Juegos del Hambre y 
superviviente del Tercer Vasallaje de los 25 no puede 
evitar sentirse culpable por el estado de su compañero. 
Además, su relación con Gale Hawthorne (Liam 
Hemsworth) empieza a hacerse cada vez más inestable. Y 
es que, a Katniss le interesa más otro objetivo: ¡Matar al presidente Snow!

Asociándose con un grupo de sus amigos más cercanos, 

que incluyen a Gale, Finnick (Sam Claflin) y Peeta, Katniss 
sale en una arriesgada misión para liberar a los 
ciudadanos de Panem. La heroína acabará en territorio 
enemigo, dentro del Capitolio, decidida a terminar con el
 presidente Snow (Donald Sutherland), que cada vez está 
más obsesionado con la destrucción de Katniss. En su 
lucha contra el Capitolio, y gracias a la ayuda del experto 
en electrónica y ex tributo del Distrito 3 Beetee
 (Jeffrey Wright), "La Chica en Llamas" empieza a 
manejar un arco especial.


En este último desafío lleno de trampas, enemigos, y

 decisiones mortales, Katniss se dará cuenta de que no 
sólo está en juego su propia supervivencia, sino también 
el futuro de todos. ¿Quién sobrevivirá y quién morirá? 
¿Qué decidirán los vencedores? ¿Continuarán los Juegos?
 Y en el terreno amoroso, ¿acabará eligiendo Katniss al 
atractivo Gale o al tierno aunque emocionalmente dañado
Peeta?


Cuarta y última película de la saga literaria Los juegos del 
hambre de la escritora estadounidense Suzanne Collins. 
Al igual que las dos anteriores entregas, vuelve a dirigir 
Francis Lawrence (Agua para elefantes, Soy leyenda). De 
nuevo, sus protagonistas son los actores Jennifer 
Lawrence (X-Men: Días del futuro pasado, El lado bueno
 de las cosas), Josh Hutcherson (Escobar: Paraíso 
perdido, 7 días en la Habana), Liam Hemsworth (Cut
 Bank, El poder del dinero), Jeffrey Wright (Sólo los
 amantes sobreviven, Código fuente), Woody Harrelson 
(True detective, Ahora me ves?) y Donald Sutherland 
(Crossing Lines, La mejor oferta). Además de las 
incorporaciones de Natalie Dormer (El consejero, Rush), 
Julianne Moore (Maps To The Stars, Don Jon) y 
Gwendoline Christie (Star Wars: El despertar de la 
Fuerza, Juego de tronos) para las dos últimas entregas 
en que se divide el capítulo final de la trilogía.

TRAILER DE LA PELICULA




INFORMACION DE LA PELICULA 


The.Hunger.Games-Mockingjay.Part.2.2015.720p.HD-TS.x264.AC3.HQ.Hive-CM8ize

Thx Hive

CM8 Doing It Right The First Time

Sources:

Video: Italian 1080p Incoming

Audio: Sweet Line Big Thx to S4NDM4N
big thx guys

Notes:

Very nice quality video as usual,no movements, no flicker, 
was cammed a bit too much to the right side, but will do just fine

Encode:

Movie had cpl darker scenes and daylight were already pe
rfect so i had to cut movie in 20 pieces and adjust brightness and contrastas well as colours as needed. Movie itself is complete just no rolling endcredits.

Audio as usual a nice line from S4NDM4N, just first 3min
s have some slight distortions here and >>theire,the rest is just fine.

got very nice
will do me till retail
enjoy

Video: 1280x720 @bitrate 4000-8000

Audio: English Stereo Line 2.0

Sample: yes included

General
Complete name : The.Hunger.Games-Mockingjay.Part.2.2015.720p.HD-TS.x264.AC3.HQ.Hive-CM8.mkvFormat : Matroska
Format version : Version 2

File size : 3.72 GiB

Duration : 2h 5mn
Overall bit rate mode : VariableEncoded date : UTC 2015-11-23 21:06:11Writing application : mkvmerge v5.6.0 ('Kenya Kane') built on May 27 2012 16:44:04Writing library : libebml v1.2.3 + libmatroska v1.3.0VideoID : 1
Format  
: AVCFormat/Info : Advanced Video CodecFormat profile : [email protected]Format settings, CABAC : YesFormat settings, ReFrames : 3 framesFormat settings, GOP : M=4, N=33Muxing mode : Header strippingCodec ID : V_MPEG4/ISO/AVCDuration : 2h 5mnBit rate mode : VariableBit rate : 3 915 KbpsMaximum bit rate : 8 000 KbpsWidth : 1 280 pixelsHeight : 720 pixelsDisplay aspect ratio : 16:9Frame rate mode : ConstantFrame rate : 29.970 fpsStandard : NTSCColor space : YUVChroma subsampling : 4:2:0Bit depth : 8 bitsScan type : ProgressiveBits/(Pixel*Frame) : 0.142Stream size : 3.42 GiB (92%)Language : EnglishDefault : YesForced : NoColor primaries : BT.709Transfer characteristics : BT.709Matrix coefficients : BT.709Color range : Limited
Audio
ID : 
2Format : AC-3Format/Info : Audio Coding 3Mode extension : CM (complete main)Format settings, Endianness : BigMuxing mode : Header strippingCodec ID : A_AC3Duration : 2h 5mnBit rate mode : ConstantBit rate : 256 KbpsChannel(s) : 2 channelsChannel positions : Front: L RSampling rate : 48.0 KHzBit depth : 16 bitsCompression mode : LossyDelay relative to video : 4msStream size : 229 MiB (6%)Language : EnglishDefault : YesForced : Yes..........................................................................................................................................................................................................................................................................................................................................................SUBTITULO BUSCAR EN....www.subdivx.com CAPTURAS

Los juegos del hambre Sinsajo parte 2
40 Puntos Score: 10/10
Visitas: 16624 Favoritos: 4
Ver los usuarios que votaron...
23 Comentarios Los juegos del hambre Sinsajo parte 2
Gracias por compartir!
No entiendo nada, puedes explicar si es cam, si es webdl, si vienes con subt?
gracias buen aporte nadamas subtitulos por favor y gracias
Gracias por compartir pero dudo mucho que esa sea captura real de tu post  
alguien a encontrado subtitulos???
la calided es 720p.HD-TS.x264
solo le falta capturas porque no las veo
vaya  a sabar si ya crearon subitulos si no van a compartir bien mejor no hagas  pero se agredece el esfuerzo
descargada   esta grabada de una pantalla, no del cine porque no se escuchan voces ni gritos ni risas, esta oscura pero = bien  
no puedo descargarla y jdown tampoco se agregan pueden decirme como le hago
donde los subtitulos aun no estan en subdix
Gracias por el aporte
una consulta, ya que esta subida a zippyshare, hay alguna forma de descargar todo esto sin esperar 15 min por enlace??

hay forma de conseguirlo por MEGA
links con proplemas de disponibilidad
@yonic69 links con problemas de disponibilidad
@sergio0976 hey amigo podrias  solucionar el problema ocn los links???
@WOLVIELVIS los enlaces estan en linea, podes descargar con el mipony, internet download o directamente desde tu navegador!! Saludos
@sergio0976  jdw no los  toma???
@WOLVIELVIS la verdad no se, no utilizo creo que no !!!
Perfecto! Muchas gracias, es un gran aporte
a ver si nos entendemos...todo barbaro...pero la mayoria pregunta donde se bajan los subtitulos y nadie contesta..se entiende??? poner direccion web de los subtitulos...gracias
Grax   , curiosa portada Una arquero y el f?
Para dejar un comentario Registrate! o.. eres ya usuario? Accede!