The Middle temporada 5 tvrip audio latino


Ya estoy retirado de subir por falta de internet en mi casa, pero agarre de buenas el wifi de mi vecino y aproveche para subirles estos capitulos,Aqui les dejo la temporada 5 es la ultima que tengo en latino,faltan los ultimos 2 capitulos que no los pasaron en tolal son 22 capitulos,televisoras de porqueria que tenemos en mexico que le vamos a hacer

La serie trata de la vida de Frankie Heck (Patricia Heaton), una mujer de mediana edad, que está casada con Mike Heck (Neil Flynn); quienes residen en el pequeño pueblo de Orson, en Indiana. Frankie y Mike son padres de tres hijos: Axl (Charlie McDermott), Sue (Eden Sher) y Brick (Atticus Shaffer). Chris Kattan hace el papel de Bob, un excéntrico amigo de Frankie, que trabaja en la misma automotora que ella.


Format                                   : AVI
Format/Info                              : Audio Video Interleave
File size                                : 180 MiB
Duration                                 : 21mn 16s
Overall bit rate                         : 1 184 Kbps
Writing application                      : VirtualDubMod 1.5.4.1 (build 2178/release)
Writing library                          : VirtualDubMod build 2178/release

Video
ID                                       : 0
Format                                   : MPEG-4 Visual
Format profile                           : Advanced [email protected]
Format settings, BVOP                    : 1
Format settings, QPel                    : No
Format settings, GMC                     : No warppoints
Format settings, Matrix                  : Custom
Codec ID                                 : XVID
Codec ID/Hint                            : XviD
Duration                                 : 21mn 16s
Bit rate                                 : 921 Kbps
Width                                    : 720 pixels
Height                                   : 416 pixels
Display aspect ratio                     : 1.731
Frame rate                               : 23.976 fps
Color space                              : YUV
Chroma subsampling                       : 4:2:0
Bit depth                                : 8 bits
Scan type                                : Progressive
Compression mode                         : Lossy
Bits/(Pixel*Frame)                       : 0.128
Stream size                              : 140 MiB (78%)
Writing library                          : XviD 1.2.1 (UTC 2008-12-04)

Audio
ID                                       : 1
Format                                   : AC-3
Format/Info                              : Audio Coding 3
Mode extension                           : CM (complete main)
Format settings, Endianness              : Big
Codec ID                                 : 2000
Duration                                 : 21mn 16s
Bit rate mode                            : Constant
Bit rate                                 : 256 Kbps
Channel(s)                               : 2 channels
Channel positions                        : Front: L R
Sampling rate                            : 48.0 KHz
Bit depth                                : 16 bits
Compression mode                         : Lossy
Stream size                              : 38.9 MiB (22%)
Alignment                                : Split accross interleaves
Interleave, duration                     : 96 ms (2.30 video frames)
Interleave, preload duration             : 96 ms


180 mb por capitulo


si no pueden descargar de mega aqui esta por solidfiles solidfiles
The Middle temporada 5 tvrip audio latino
85 Puntos Score: 9.4/10
Visitas: 1361 Favoritos: 1
Ver los usuarios que votaron...
18 Comentarios The Middle temporada 5 tvrip audio latino
estan caidos!! los podrias volver a subir!! muchas gracias por el aporte!!
Amigo excelente aporte, de casualidad tienes los captulos 23 y 24 pues, en la descarga no los muestra, ojala los tengas, y los agregues para tener la Temporada Completa, Saludos   Ja
@freemantin , amigo si te tomas 30 segundos para leer lo que @juanw200 escribio te daras cuenta que el ya informo sobre esos 2 cap. Por lo que creo que hay que leer y agradecer en vez de solo pedir
Yo tengo los cap que faltan . Ma?
@nefi40 Amigo Desde luego que le agradeci soy de las personas que sben lo dificil que es subir sobre todo cuando la conexion no es muy favorable Ok Saludos   Ja
Links Caidos  

Subelos porfa
muy buen aporte, muchas gracias pero podr?
Cita pepe_12: Mostrar
@freemantin @rugal2015 @nefi40 @freemantin @macxd de nada
@danmaxter hay que usar mi pony o jd los links estan encriptados con mi pony @pepe_12
@juanw200
hay que usar mi pony o jd los links estan encriptados con mi pony
eso no sirve tus links estan caidos usando cualquiera de los 2 gestores  
q lastima q los  links e sten da?
@morsadenti @mce2008 @mupaxx los links estan bien vean una captura de ahora que hago en el comentario,deben actualizar sus programas,ahora no tengo tiempo de resubir algo que esta bien, el fin de semana veo si remoteo de mega a solidfiles los capitulos yo los nombro
@pepe_12 @freemantin @rugal2015 @nefi40 @macxd @danmaxter @morsadenti @mce2008 @mupaxx ahi remotie los capitulos a solidfiles,a algunos usuarios no les funcionan los links encriptados de mega,aprovechen y descarguen espero y duren un buen tiempo online
@juanw200
gracias por resubir a otro servidor y te comento que tengo todo con sus updates y hasta el JD 2 y nada todo sale muerto y no es el primer post varios de otras webs que visito estan igual gracias nuevamente y a bajar saludos  
@juanw200 Amigo te agrdezco tu atencion yo si los descargue perfectamente muchas gracias Saludos   Ja

Cita juanw200: Mostrar
Genial muchas gracias por compartir, +10  
muchas gracias... es de las mejores series, espero sigas subiendo las demás temporadas porfa  
Para dejar un comentario Registrate! o.. eres ya usuario? Accede!