j0k3r
"Todas las obras de arte deben empezar... por el final"

Sanson y Dalila MundoMax (Latino)









Sipnosis
14-11-2015
Sansón es un hombre fuerte, valiente, un hebreo que lucha contra muchos ejércitos enemigos de su pueblo y animales salvajes; además él guarda el misterioso secreto de su fuerza. Nacido como la promesa de ser el libertador de su pueblo, que está oprimido y perseguido.

El triunfo de Sansón llega a los oídos de Dalila, una mujer filistea que tiene una belleza exuberante y es muy ambiciosa. Ella fue elegida por Inarus, el príncipe de Gaza, para ser otra de las cortesanas de su palacio. En busca del poder, Dalila llama la atención por ser bonita y uy pronto se convierte en la favorita entre todas las cortesanas.

Sansón es insuperable, gana muchas batallas y provoca la ira de su principal enemigo, los filisteos. El príncipe Inarus se enfurecía por cada victoria del guerrero hebreo contra su ejército tan bien armado y preparado que permite que Dalila intente persuadir Sansón para descubrir el secreto de su fuerza.

Así, las historias de Sansón y Dalila se cruzan. La fuerza y la belleza se unen en un juego de ambición, seducción y poder.


Format                          : MPEG-4

Format profile              : Base Media / Version 2

Codec ID                      : mp42

File size                        : 358 MiB

Duration                        : 43mn 50s

Overall bit rate mode       : Variable

Overall bit rate                  : 1 141 Kbps

Writing application           : HandBrake 0.10.0 2014123100


Video

ID                                    : 1

Format                           : AVC

Format/Info                    : Advanced Video Codec

Format profile                : [email protected]

Format settings, CABAC        : Yes

Format settings, ReFrames   : 4 frames

Codec ID                         : avc1

Codec ID/Info                 : Advanced Video Coding

Duration                          : 43mn 50s

Bit rate                             : 1 001 Kbps

Width                               : 1 276 pixels

Height                              : 720 pixels

Display aspect ratio        : 16:9

Frame rate mode             : Variable

Frame rate                        : 29.970 fps

Minimum frame rate          : 10.011 fps

Maximum frame rate          : 29.970 fps

Color space                         : YUV

Chroma subsampling        : 4:2:0

Bit depth                     : 8 bits

Scan type                   : Progressive

Bits/(Pixel*Frame)     : 0.036

Stream size                : 315 MiB (88%)

Writing library             : x264 core 118

Color range                : Limited

Color primaries         : BT.709

Transfer characteristics    : BT.709

Matrix coefficients    : BT.709


Audio

ID                                : 2

Format                      : AAC

Format/Info               : Advanced Audio Codec

Format profile          : LC

Codec ID                  : 40

Duration                    : 43mn 50s

Bit rate mode           : Variable

Bit rate                       : 129 Kbps

Channel(s)               : 2 channels

Channel(s)_Original         : 1 channel

Channel positions              : Front: C

Sampling rate                      : 44.1 KHz

Compression mode            : Lossy

Stream size                          : 40.3 MiB (11%)

Title                                        : Mono / Mono

Peso:                                     : 200 MB x Capitulo

Idioma                                  : Español Latino


Nota: Lo encontre en una pagina que los ofrecia online, que mas quisiera yo que fueran 720p si la encuentro asi la subo, por cierto estoy preparanado la otra seria de mundo fox, LOS MILAGROS DE JESUS, en cuanto la tenga la subo por que todavia esta en trasmision pero ire subiendo los capitulos como vayan saliendo, Gracias.


















Capitulo 18 con los 2 audios Portugues y Latino (grabado de Tv) el audio latino empieza al minuto 9:48 (Audios por Separado)








Contraseña:  j0k3r
Sanson y Dalila MundoMax (Latino)
110 Puntos Score: 9.2/10
Visitas: 5288 Favoritos: 12
Ver los usuarios que votaron...
47 Comentarios Sanson y Dalila MundoMax (Latino)
Tengo problemas de carga de links en JDownloader 2, gracias igual
@Ronemima Deja lo edito para revisarlo pero mi rango no me deja todavia, en unos minutos lo reviso y disulpen
Los links no se adjuntan en el JD...  
no se carga en jdowloader 2
Si los estoy revisando permitanme no los voy a dejar sin [email protected] @NBcreativo
dale amigo....tranquilo...esperamos entonces...gracias por el esfuerzo..
@erickhel @NBcreativo @Ronemima  Arreglado los enlaces, chequenlos por favor y gracias.
listo...gracias...se cargaron y estan descargando perfectamente los links...se cargaron los diez sin problema..+10..gracias amigo...muy bien
Cuantos capitulos tiene esta serie,gracias
Perdon,cuando hice la pregunta no me caragaba al jdow,Gracias
Graciasssss
Siempre es novedad ver una nueva versi?
@george18 18 Capitulos , @erickhel Gracias, @paletero7 a ti por pasar
Gracias man!!... Saludos! 10+
@NBcreativo De nada, gracias a ti por pasar y tus puntos
@joker la parte 1 esta ca?
Gacias por el aporte, pero ppor m?
Amigo sigo sin poder bajar los archivos.
Listo....gracias.
Ahora si vargaron, al fin. Gracias.  
@Ricardosky Reviso muchas gracias.
podrias darme la pagina de donde las bajas porfavor?
hola el capitulo 18 se ve horrible y encima se escucha muy mal gracias y disculpa las molestias
@yedamihali Si la voy a tratar de conseguir en 720P dame tiempo, deja ver si tengo otra calidad, gracias por comentar y asi yo mejoro en mis descargas
tendras por casualidad la reyna ester
@44nadie De ese me falta el ultimo capitulo y no lo encuentro
@yedamihali Encontre en mejor calidad pero no hay audio asi que lo voy a ajustar para que sea de l amejor calidad pero con el audio de este que tengo, en cuanto termine LOS MILAGROS DE JESUS me dedico a corregir gracias.
Cita j0k3r: Mostrar
son solo 18 capitulos o faltan?
gracias por responder el ultimo capitulo se ve y se escucha mal no tendras otro?
@triplec Si es el que voy a corregir pero solo la imagen por que el audio no lo encuentro
oka muchas gracias, no tendras por ahi moises los diez mandamientos la serie o la serie el rey tut?
@triplec Tengo al del rey tut pero son 3 capitulos y con subtitulos
ok amigo te preguntaba ya ke salieron en latino esas dos series por eso, gracias por responder
amigo arreglo el capitulo 18?
@triplec El capitulo 18 lo encontr?
Excelente aporte! Igual que los milagros de Jes?
Donde se encuentra el nuevo capitulo 18, el que esta en Portugues hasta los 19 minutos.
@bacigalupo No lo he subido pero si as?
Por favor si puedes subirlos te lo agradecer?
j0k3r  ojala te acuerdes de subir el capitulo 18
@bacigalupo No se me olvida pero como estoy preparando la de "La reina Ester" no te preocupes
@bacigalupo Listo el capitulo 18
Gracias amigo por tu esfuerzo y saludos
Amigo en JD se me agregan solo 10 en my pony igual
Entonces faltan 8 mas???? o algo hize mal???
Muchas gracias muchacho!!! No estoy descargando tus aportes en orden; pero voy bien. Much?
Para dejar un comentario Registrate! o.. eres ya usuario? Accede!