Fear TWD Audio Latino WEB-DL x264 1080p

FEAR THE WALKING DEAD 
TEMPORADA 1 
WEB-DL X264 
AUDIO ESPAÑOL LATINO





Fear the Walking Dead es una serie de televisión próxima a ser transmitida en AMC Su estreno fue el 23 de agosto de 2015 en Estados Unidos. Es compañero de la serie de televisión dramática y de terror The Walking Dead y basada en la serie de cómics del mismo nombre creada por Robert KirkmanTony Moore y Charlie Adlard. AMC dio luz verde a la serie el 9 de marzo de 2015, con un compromiso de realizar dos temporadas.
















Tamaño:  1 Link x Capitulo (ver captura)
Marcas: Sin Marcas 
Calidad: WEB-DL  
Resolución: 1920x1080p
Formato: MKV
Codec: x264
Audio: Español Latino
Subtitulos: No
Uploader : xeca_efe_up
Servidor: Mega 



Fear the Walking Dead S01E01 Pilot - Dual 1080p WEB-DL Latino.mkv
Format                      : Matroska
Format version              : Version 2
File size                   : 1.19 GiB
Duration                    : 1h 4mn
Overall bit rate mode       : Variable
Overall bit rate            : 2 632 Kbps
Movie name                  : Fear the Walking Dead S01E01 Pilot - Dual 1080p WEB-DL
Encoded date                : UTC 2015-10-11 18:30:54
Writing application         : DVDFab 9.2.1.2
Writing library             : libebml v0.7.8 + libmatroska v0.8.1

Video
ID                          : 1
Format                      : AVC
Format/Info                 : Advanced Video Codec
Format profile              : [email protected]
Format settings, CABAC      : Yes
Format settings, ReFrames   : 2 frames
Codec ID                    : V_MPEG4/ISO/AVC
Duration                    : 1h 4mn
Bit rate mode               : Variable
Bit rate                    : 2 324 Kbps
Maximum bit rate            : 3 729 Kbps
Width                       : 1 920 pixels
Height                      : 1 080 pixels
Display aspect ratio        : 16:9
Frame rate mode             : Constant
Frame rate                  : 23.976 fps
Color space                 : YUV
Chroma subsampling          : 4:2:0
Bit depth                   : 8 bits
Scan type                   : Progressive
Bits/(Pixel*Frame)          : 0.047
Stream size                 : 1.05 GiB (88%)
Default                     : Yes
Forced                      : No

Audio
ID                          : 2
Format                      : AC-3
Format/Info                 : Audio Coding 3
Mode extension              : CM (complete main)
Format settings, Endianness : Big
Codec ID                    : A_AC3
Duration                    : 1h 4mn
Bit rate mode               : Constant
Bit rate                    : 256 Kbps
Channel(s)                  : 2 channels
Channel positions           : Front: L R
Sampling rate               : 48.0 KHz
Compression mode            : Lossy
Stream size                 : 118 MiB (10%)
Language                    : Spanish
Default                     : No
Forced                      : No






LINK PARA JDOWNLOADER
http://127.0.0.1:9666/flash/addcrypted2?jk=function+f%28%29%7B+return+%2731323334353636373730393837363534%27%3B%7D&crypted=lqaq9pGDa1U6EpmuELkTSuti6VvxvyyB0cex6EK9tgkcpKmgMk5O6Xs88VomCoo2kEmt8dvkuS4zi4FBM4rcM5q8RakK35+n6AYERX23bI60BVHeuJMDUojZYTB3Z0KfHj2Sh8vd4yCcjcl+VwP0hmNIxh73bAzoztYYURSXrJg=


No Tiene
Fear TWD Audio Latino WEB-DL x264 1080p
12 Puntos Score: 6/10
Visitas: 1025 Favoritos: 2
Ver los usuarios que votaron...
9 Comentarios Fear TWD Audio Latino WEB-DL x264 1080p
@chiclo Aunque sea dejame puntos csm , ni ahi con tu puta pagina  
Y que chingados es esta mierda de publicidad,no negar?
Donde se puede denunciar esto?
Ayuda con la resubida..!! Saludos
gracias que diferencia de estos videos con los de tu otro post solo las marcas?
http://www.identi.li/topic/fear-the-walking-dead-6-6-audio-latino-x264-1080p
@naruzugui0  Diria que si , si bien webdl es mejor al parecer que la captura de tv la calidad es muy buena tambien  .
Para dejar un comentario Registrate! o.. eres ya usuario? Accede!