ikarux
"veamos que nos podemos descargar por aquí :V"

Rammstein - En Amerika (2015) 720p Concierto


lo prometido en deuda. aqui esta el concierto en 720p con audio 5.1 y DTS para que lo escuchen como dios manda. ademas agrego los subtitulos del dokumental de mi Pots anterior.

Format                         : Matroska
Format version                 : Version 2
File size                      : 6.43 GiB
Duration                       : 1h 41mn
Overall bit rate               : 9 030 Kbps


Video
ID                             : 1
Format                         : AVC
Format/Info                    : Advanced Video Codec
Format profile                 : [email protected]
Format settings, CABAC         : Yes
Format settings, ReFrames      : 6 frames
Codec ID                       : V_MPEG4/ISO/AVC
Duration                       : 1h 41mn
Bit rate                       : 7 085 Kbps
Nominal bit rate               : 7 500 Kbps
Width                          : 1 280 pixels
Height                         : 720 pixels
Display aspect ratio           : 16:9
Frame rate                     : 24.000 fps
Stream size                    : 5.04 GiB (78%)


Audio #1
Format                         : AC-3
Codec ID                       : A_AC3
Bit rate                       : 256 Kbps
Channel(s)                     : 6 channels
Channel positions              : Front: L C R, Side: L R, LFE
Sampling rate                  : 48.0 KHz
Stream size                    : 187 MiB (3%)

Audio #2
Format                         : DTS
Format/Info                    : Digital Theater Systems
Mode                           : 16
Bit rate                       : 1 509 Kbps
Channel(s)          : 6 channels
Channel positions            : Front: L C R, Side: L R, LFE
Sampling rate                  : 48.0 KHz
Bit depth                      : 24 bits
Stream size                    : 1.07 GiB (17%)


Menu
00:00:00.000                   : en:
00:02:36.791                   : en:Intro
00:07:33.458                   : en:Rammlied
00:11:50.875                   : en:B*********
00:15:50.208                   : en:Waidmanns Heil
00:19:44.291                   : en:Keine Lust
00:24:31.625                   : en:Weisses Fleisch
00:28:09.291                   : en:Feuer Frei!
00:34:12.833                   : en:Weiner Blut
00:40:16.000                   : en:Fruhling in Paris
00:46:56.375                   : en:Ich Tu Dir Weh
00:52:00.000                   : en:Du Reichst So Gut
00:56:44.916                   : en:Benzin
01:01:39.833                   : en:Links 2 3 4
01:05:54.833                   : en:Du Hast
01:14:44.833                   : en:Pussy
01:19:47.458                   : en:Sonne
01:26:01.750                   : en:Haifisch
01:30:12.416                   : en:Ich Will
01:37:51.000                   : en:Engel


Capturas de pantalla




adiciono los subtitulos de mi post anterior para el documental
http://www.identi.li/index.php?topic=391851
 


link de descarga de 10 .rar de 700 megas


 



el audio esta genial!! y la imagen ufff.
Rammstein - En Amerika (2015) 720p Concierto
58 Puntos Score: 8.3/10
Visitas: 2553 Favoritos: 2
Ver los usuarios que votaron...
18 Comentarios Rammstein - En Amerika (2015) 720p Concierto
impecble capo +10 sihgue asi
Descargando!!!  
gracias por el aporte  
gracias amigo muy buen aporte   pero los archivos piden pass.  
Cita cristi4an: Mostrar

perdon perdon ya arreglado jdownloader tenia problemas xD
Alta calidad, mucho peso  
+10=
gracias,por los subtitulos en castellano!!!!!!!!!!!!!!!!!!!!!!!!!!!!!!!!!!!!!!!
amigo @ikarux puedes agregar solo el audio DTS para descargarlo porfa?
Excelente! Muchas gracias  
De mis bandas favoritas, te dejo los 5 que me quedan de hoy.
Muchas gracias! Excelente aporte. Saludos  
Hola, cuando termino de descomprimir me dice que los vol?
@Nutshell debe ser un error tuyo. porque la cantidad de clientes satisfechos hablan por si solos. seguro tuviste una caida en la descarga cuando bajabas un paquete.
Se ve y se escucha excelente, muchas gracias!    
Para dejar un comentario Registrate! o.. eres ya usuario? Accede!