Neon Genesis Evangelion Serie 26/26 16:9 Latino

Neon Genesis Evangelion

Serie 26 Capitulos

Audio Español Latino

16:9 Full Scren




Capturas












Neon Genesis EvangelionNeon Genesis Evangelion - 11.mkv
Format                      : Matroska
Format version              : Version 2
File size                   : 237 MiB
Duration                    : 23mn 21s
Overall bit rate mode       : Variable
Overall bit rate            : 1 419 Kbps
Movie name                  : Neon Genesis Evangelion - 11
Encoded date                : UTC 2015-09-13 02:35:22
Writing application         : DVDFab 9.2.1.0
Writing library             : libebml v0.7.8 + libmatroska v0.8.1

Video
ID                          : 1
Format                      : AVC
Format/Info                 : Advanced Video Codec
Format profile              : [email protected]
Format settings, CABAC      : Yes
Format settings, ReFrames   : 2 frames
Codec ID                    : V_MPEG4/ISO/AVC
Duration                    : 23mn 21s
Bit rate mode               : Variable
Bit rate                    : 1 199 Kbps
Maximum bit rate            : 1 867 Kbps
Width                       : 832 pixels
Height                      : 468 pixels
Display aspect ratio        : 16:9
Frame rate mode             : Constant
Frame rate                  : 23.976 fps
Color space                 : YUV
Chroma subsampling          : 4:2:0
Bit depth                   : 8 bits
Scan type                   : Progressive
Bits/(Pixel*Frame)          : 0.128
Stream size                 : 200 MiB (84%)
Default                     : Yes
Forced                      : No

Audio
ID                          : 2
Format                      : AC-3
Format/Info                 : Audio Coding 3
Mode extension              : CM (complete main)
Format settings, Endianness : Big
Codec ID                    : A_AC3
Duration                    : 23mn 21s
Bit rate mode               : Constant
Bit rate                    : 192 Kbps
Channel(s)                  : 2 channels
Channel positions           : Front: L R
Sampling rate               : 48.0 KHz
Compression mode            : Lossy
Stream size                 : 32.1 MiB (14%)
Language                    : Spanish
Default                     : No
Forced                      : No


Tamaño: Entre 230 y 250 mb cada capitulo
Resolución: 832x468
Aspect Ratio: 16:9
Formato: MKV
Codec: x264
Audio: Español Latino
Subtitulos: No
Duracion: 23:21 Aprox
Uploader : xeca_efe_up
Servidor: Mega



No Tiene


Comentario:  

Esta serie nunca la habia visto bien , siempre me la encontraba de repente en tv a medias . me decidi a buscarla para verla ya que vi sus peliculas .

 cuando encontre la serie tenia buena calidad pero estaba en Aspect Ratio4:3 , en mi led se veia a mi parecer muy mal ya que no tiene la opcion de agrandar a pantalla completa por que busque y busque el soft adecuado y me dieron estos resultados , confirme que se veia genial y de esta serie he hecho lo mismo con otras y me gustan como quedan.

 hace un tiempo que la tenia subida y ahora me di el tiempo de crear el post lo suficientemente bueno para esta serie .

Espero les agrade -
Neon Genesis Evangelion Serie 26/26 16:9 Latino
30 Puntos Score: 6/10
Visitas: 2530 Favoritos: 7
Ver los usuarios que votaron...
12 Comentarios Neon Genesis Evangelion Serie 26/26 16:9 Latino
Gracias por el aporte!  
si pones Aspect Ratio 1:1 se ajusta a cualquier pantalla.
Luce muy mal, se ve distorsionado
@Feisbulin esta hecho a base del dvd, en bluray se ve mejor.
16:9 solo por que ocupa la pantalla completa para volverlo a 4:3 usen mkv toolkit se demora menois de 1 min por cap
Gracias pro la serie!! es de lo mejor que ha dado el manga y anime! saludos!
Golpe de nostalgia en 5 , 4, 3, 2, 1   esta fue la primera serie que consegui para PC en formato real media y tu quej?
Para dejar un comentario Registrate! o.. eres ya usuario? Accede!