Dragones: Carrera al Borde (Season3) 1080p [12/13]





Dragons: Race to the Edge - (3 Temporada)

Capítulo 12:
The Next Big Sting

NOTA: Audio latino capturado por jerseyzv

IMAGENES




DETALLES
General
Complete name                  : Dragons.S03E12.The.Next.Big.Sting.1080p.mkv
Format                         : Matroska
File size                      : 1.08 GiB
Duration                       : 22mn 45s
Overall bit rate               : 6 776 Kbps

Video
Format                         : AVC
Format profile                 : [email protected]
Format settings, ReFrames      : 4 frames
Duration                       : 22mn 45s
Bit rate                       : 5 681 Kbps
Width                          : 1 920 pixels
Height                         : 1 080 pixels
Display aspect ratio           : 16:9
Frame rate mode                : Constant
Frame rate                     : 23.976 fps
Scan type                      : Progressive
Bits/(Pixel*Frame)             : 0.114
Stream size                    : 925 MiB (84%)
Writing library                : x264 core 144 r2525 40bb568


Audio #1
Format                         : AC-3
Mode extension                 : CM (complete main)
Duration                       : 22mn 45s
Bit rate mode                  : Constant
Bit rate                       : 640 Kbps
Channel(s)                     : 6 channels
Channel positions              : Front: L C R, Side: L R, LFE
Sampling rate                  : 48.0 KHz
Bit depth                      : 16 bits
Compression mode               : Lossy
Stream size                    : 104 MiB (9%)
Title                          : English
Language                       : English
Default                        : Yes

Audio #2
Format                         : AC-3
Mode extension                 : CM (complete main)
Duration                       : 22mn 45s
Bit rate mode                  : Constant
Bit rate                       : 320 Kbps
Channel(s)                     : 2 channels
Channel positions              : Front: L R
Sampling rate                  : 48.0 KHz
Bit depth                      : 16 bits
Compression mode               : Lossy
Stream size                    : 52.1 MiB (5%)
Title                          : Español Latino
Language                       : Spanish
Default                        : No

Text #1
Format                         : UTF-8
Language                       : English
Default                        : No
Forced                         : No

Text #2
Format                         : UTF-8
Language                       : French
Default                        : No
Forced                         : No

Text #3
Format                         : UTF-8
Language                       : Spanish
Default                        : No
Forced                         : No





Dragones: Carrera al Borde (Season3) 1080p [12/13]
5 Puntos Score: 5/10
Visitas: 1058 Favoritos: 3
Ver los usuarios que votaron...
8 Comentarios Dragones: Carrera al Borde (Season3) 1080p [12/13]
no se agregan a mipony
@yiyolokott lo acabo de probar y si se agrega
lei mal y crei que decia drogones carrera al borde   igual buen post  
muchas gracias ya descargue todos. esperando el capitulo 13.
hola esperando te encuerntres bien, y preguntandote por el 13 capitulo faltante, sera que si nos pudieras hacer el favor, gracias, saludos.
@bobulbit65 gracias por pasar, estuve algo atareado subire el cap 13 en unos dias  
Gracias, saludos
Para dejar un comentario Registrate! o.. eres ya usuario? Accede!