Dragones: Carrera al Borde (Season3) 1080p [11/13]






Dragons: Race to the Edge - (3 Temporada)

Capítulo 11:
Have Dragon Will Travel Part 2

NOTA: Audio latino capturado por jerseyzv

IMAGENES




DETALLES
General
Complete name                  : Dragons.S03E11.Have.Dragon.Will.Travel.Part.2.1080p.mkv
Format                         : Matroska
Format version                 : Version 4 / Version 2
File size                      : 1.13 GiB
Duration                       : 22mn 15s
Overall bit rate               : 7 299 Kbps

Video
Format                         : AVC
Format profile                 : [email protected]
Format settings, CABAC         : Yes
Duration                       : 22mn 15s
Bit rate                       : 6 194 Kbps
Width                          : 1 920 pixels
Height                         : 1 080 pixels
Display aspect ratio           : 16:9
Frame rate mode                : Constant
Frame rate                     : 23.976 fps
Scan type                      : Progressive
Bits/(Pixel*Frame)             : 0.125
Stream size                    : 986 MiB (85%)
Writing library                : x264 core 144 r2525 40bb568

Audio #1
Format                         : AC-3
Mode extension                 : CM (complete main)
Duration                       : 22mn 15s
Bit rate mode                  : Constant
Bit rate                       : 640 Kbps
Channel(s)                     : 6 channels
Channel positions              : Front: L C R, Side: L R, LFE
Sampling rate                  : 48.0 KHz
Bit depth                      : 16 bits
Compression mode               : Lossy
Stream size                    : 102 MiB (9%)
Title                          : English
Language                       : English
Default                        : Yes

Audio #2
Format                         : AC-3
Mode extension                 : CM (complete main)
Duration                       : 22mn 15s
Bit rate mode                  : Constant
Bit rate                       : 320 Kbps
Channel(s)                     : 2 channels
Channel positions              : Front: L R
Sampling rate                  : 48.0 KHz
Bit depth                      : 16 bits
Compression mode               : Lossy
Stream size                    : 50.9 MiB (4%)
Title                          : Español Latino
Language                       : Spanish
Default                        : No

Text #1
Format                         : UTF-8
Language                       : English
Default                        : No
Forced                         : No

Text #2
Format                         : UTF-8
Language                       : French
Default                        : No
Forced                         : No

Text #3
Format                         : UTF-8
Language                       : Spanish
Default                        : No
Forced                         : No





Dragones: Carrera al Borde (Season3) 1080p [11/13]
25 Puntos Score: 8.3/10
Visitas: 1056 Favoritos: 2
Ver los usuarios que votaron...
2 Comentarios Dragones: Carrera al Borde (Season3) 1080p [11/13]
Para dejar un comentario Registrate! o.. eres ya usuario? Accede!