The Animatrix (2003) BlurayRip DTS 1080p MEGA





The Animatrix


The Animatrix (???????? Animatorikkusu[sup][/sup]) es una película de antología al estilo anime sobre el mundo de ficción de la trilogía Matrix. Animatrix en sí es una recopilación de nueve cortos animados creados por famosos directores de animación, entre estos cortos destaca lo variado en gráficos y originalidad en las historias, basadas en la trilogía estadounidense mencionada, haciendo las veces de precuela o de secuela.


Sinopsis


Recopilatorio de nueve cortometrajes que exploran el mundo de Matrix, la historia de los hermanos Wachowski llevada al cine de animación por parte de los más destacados directores de la animación digital.

"El último vuelo de Osiris" (Andrew R. Jones): La tripulación del Osiris tiene que llevar un mensaje de vital importancia a Zion, y se encontrarán en el camino con la armada de centinelas.

"Segundo Renacimiento" (Mahiro Maeda): Fomado por dos cortometrajes, "Parte 1" y "Parte 2". La génesis de la matriz, las últimas ciudades de la humanidad, la guerra de las máquinas y la ruina final, forman un tour épico guiado alrededor de los archivos de Zion y de la historia de Matrix.

"Historia del chico" (Shinichiro Watanabe): Sentado en su clase, un niño recibe una invitación personalizada de Neo para escapar de Matrix, pero buscando una salida encuentra más dificultad que la que nunca hubiese imaginado.

"Programa" (Toshiaki Kawajiri): En el mundo simulado del programa de entrenamiento de un samurai, Cis, un soldado de Zion, se ve forzado a escoger entre el amor y sus camaradas en el mundo real.

"Récord mundial" (Takeshi Koike): A través de una increíble combinación de fuerza de voluntad y fuerza física, Dan, campeón mundial de velocidad, consigue escapar de Matrix y echar una rápida ojeada al mundo real.

"Más allá" (Koji Morimoto): En una tranquila ciudad donde no todo es como parece, Yoko encuentra un fallo en el sistema; una mansión abandonada en la que cualquier cosa es posible, hasta que los exterminadores lleguen al bug.

"Historia del detective" (Shinichiro Watanabe): Ash, un duro investigador privado, sigue las pistas de una criminal cibernética conocida como Trinity.

"Matriculado" (Peter Chung): Un grupo de rebeldes capturan un robot sensitivo y lo programan de modo que actúe como aliado para su causa; la operación es un éxito pero el apetito que siente el robot por la matriz humana empieza a exceder la capacidad que tienen los humanos de suministrarlo.


Capturas de Pantalla












Detalles


General
Complete name                 : The.Animatrix.2003.1080p.BluRay.mkv
Format                        : Matroska
File size                     : 5.54 GiB
Duration                      : 1h 40mn
Overall bit rate              : 7 870 Kbps
Movie name                    : The Animatrix (2003) Blu-ray

Video
Format                         : AVC
Format profile                 : [email protected]
Duration                       : 1h 40mn
Bit rate                       : 5 756 Kbps
Width                          : 1 920 pixels
Height                         : 800 pixels
Frame rate mode                : Constant
Frame rate                     : 23.976 fps
Scan type                      : Progressive
Stream size                    : 4.05 GiB (73%)
Title                          : The Animatrix (2003) Blu-ray
Writing library                : x264 core 125 r2200 999b753

Audio #1
Format                         : DTS
Duration                       : 1h 40mn
Bit rate mode                  : Constant
Bit rate                       : 1 509 Kbps
Channel(s)                     : 6 channels
Channel positions              : Front: L C R, Side: L R, LFE
Sampling rate                  : 48.0 KHz
Bit depth                      : 16 bits
Compression mode               : Lossy
Stream size                    : 1.06 GiB (19%)
Language                       : English
Default                        : Yes

Audio #2
Format                         : AC-3
Mode extension                 : CM (complete main)
Duration                       : 1h 40mn
Bit rate mode                  : Constant
Bit rate                       : 448 Kbps
Channel(s)                     : 6 channels
Channel positions              : Front: L C R, Side: L R, LFE
Sampling rate                  : 48.0 KHz
Bit depth                      : 16 bits
Compression mode               : Lossy
Stream size                    : 323 MiB (6%)
Title                          : Español Latino
Language                       : Spanish
Default                        : No

Text #1
Format                         : UTF-8
Title                          : Español
Language                       : Spanish
Default                        : Yes

Servidor:  MEGA (DLC/6 Links)




The Animatrix (2003) BlurayRip DTS 1080p MEGA
73 Puntos Score: 9.1/10
Visitas: 3447 Favoritos: 7
Ver los usuarios que votaron...
16 Comentarios The Animatrix (2003) BlurayRip DTS 1080p MEGA
Descargado y anda de 10..... gracias!
Como lo descargo???
de casualidad tienes las de vangelion... o las de deah space??? grasiassss
@Pocho_Mex  

@rampante7  

@haroldwin descarga el DLC  de mega y lo abres con  Jdownloader o mipony, se agregaran los enlaces

@sau053190 las de death space si vere si los puedo subir
ok gracias    
yo lo tengo en dvd pense que no lo iba a poder conseguir en bluray muchas gracias por subirlos
@nightmarex   gracias por los 10
hola gracias pero tiene contrase?
yea !!!!!!!!!!! eso era todo
Me la llevo, muchas gracias  
descargando, gracias  
Para dejar un comentario Registrate! o.. eres ya usuario? Accede!