Girl 3 parte de me me me 1080p 60 y 30 fps



hola que tal amigos de identi les dejo la 3 parte de  me  me me esta es la version prview ya que le quite las barras a si que   díganme se las dejo o  las quito  jejejeje bueno les dejo los links
 IMPORTANTE CAMBIAR LA EXTENSION A .RAR




30fps 
Video
ID                          : 2
Format                      : AVC
Format/Info                 : Advanced Video Codec
Format profile              : [email protected]
Format settings, CABAC      : Yes
Format settings, ReFrames   : 3 frames
Format settings, GOP        : M=4, N=15
Codec ID                    : avc1
Codec ID/Info               : Advanced Video Coding
Duration                    : 7mn 7s
Bit rate mode               : Variable
Bit rate                    : 13.0 Mbps
Maximum bit rate            : 24.0 Mbps
Width                       : 1 920 pixels
Height                      : 1 080 pixels
Display aspect ratio        : 16:9
Frame rate mode             : Constant
Frame rate                  : 29.970 fps
Standard                    : NTSC
Color space                 : YUV
Chroma subsampling          : 4:2:0
Bit depth                   : 8 bits
Scan type                   : Progressive
Bits/(Pixel*Frame)          : 0.210
Stream size                 : 664 MiB (99%)








la ultima ves se quejaron del peso este lo trate de comprimir mas 

60fps 

Format                      : AVC
Format/Info                 : Advanced Video Codec
Format profile              : [email protected]
Format settings, CABAC      : Yes
Format settings, ReFrames   : 4 frames
Codec ID                    : V_MPEG4/ISO/AVC
Duration                    : 7mn 7s
Bit rate                    : 8 818 Kbps
Width                       : 1 920 pixels
Height                      : 1 080 pixels
Display aspect ratio        : 16:9
Frame rate mode             : Constant
Frame rate                  : 59.880 fps
Original frame rate         : 59.940 fps
Color space                 : YUV
Chroma subsampling          : 4:2:0
Bit depth                   : 8 bits
Scan type                   : Progressive
Bits/(Pixel*Frame)          : 0.071
Stream size                 : 449 MiB (94%)




https://mega.nz/#!L5RnwRCB!zxQt_aR_C7oIPC-tj1nxRTqiM_539rBSY6ZlhVGrw6I










mas tarde pongo capturas jejeej ya que el jestor que uso mando a al ... todas mis fotos de mis publicaciones Z_z  saludos 




Pimera parte 

Girl 3 parte de me me me 1080p 60 y 30 fps
25 Puntos Score: 8.3/10
Visitas: 3949 Favoritos: 3
Ver los usuarios que votaron...
12 Comentarios Girl 3 parte de me me me 1080p 60 y 30 fps
Bajando, haber que tal esta "3ra parte" xd.

Ty amigo  
Gracias, aunque tengo una gran duda, si este es Girl 3 Parte, la 2 no la tienes? ya que no encontre en tus post mas que la primera.
Cita Yuzk33: Mostrar
puedes verla en esta pagina http://animatorexpo.com/mememechronic/ el uno lo quitaron momentaneamente
igual estan en 60?
Cita jakydax: Mostrar
en ambos formatos en 30 y 60
 el primero es de 30 el segundo pesa menos y es el de 60
Muchas gracias, te dejo mis ?
y girl 2??? la subiste?
Cita p2lpz: Mostrar
es si es la de mememe  la que es como remix  http://animatorexpo.com/mememechronic/   y  la 3 que vendr?
@yano_ ahhh yo loa quiero bajaarrr vamos man subila! media pila sino te quemamos la cuenta!! jajaja na gracias de todas formas
Cita p2lpz: Mostrar
para la proxima semana i tengo tiempo la subo  
@yano_ super, eres el rey de reyes
Para dejar un comentario Registrate! o.. eres ya usuario? Accede!