The Mothman Prophecies (2002) 1080p MEGA


INFORMACION


The Mothman Prophecies (El mensajero de la oscuridad en Latinoamérica, Mothman: la última profecía en España), originalmente The Mothman Prophecies, es una película de  dirigida por Mark Pellington, adaptada del libro de 1975 del mismo nombre por el parapsicólogo y Forteano John Keel. Es protagonizada por Richard Gere como John Klein, un reportero que investiga la leyenda de Mothman.


La película está basada en eventos reales que ocurrieron entre noviembre de 1966 y diciembre de 1967 en Point Pleasant, Virginia Occidental. El protagonista está basado en una persona real llamada Woodrow Derenberger.




SINOPSIS


Todavía trastornado por la muerte de su esposa en un extraño accidente automovilístico, el periodista John Klein sufre una avería en su coche en plena noche. Al pedir ayuda, descubre sorprendido que se encuentra en un pequeño pueblo de West Virginia, a cientos de kilómetros de donde creía estar. La sheriff local le informa de que una serie de inexplicables sucesos han tenido lugar en los últimos tiempos. Después de analizar varios casos y de consultar al especialista en fenómenos paranormales Alexander Leek, Klein empieza a sospechar que la explicación del extraño suceso podría deberse a la presencia de Mothman, una misteriosa y legendaria criatura que anuncia el desastre y la muerte. Esta sospecha lo perturba hasta tal punto que sus más profundas convicciones empiezan a tambalearse y tiene la terrible impresión de hallarse en el umbral de un universo aterrador y desconocido.


CAPTURAS DE PANTALLA










DETALLES


General
Format                         : Matroska
File size                      : 9.59 GiB
Duration                       : 1h 59mn
Overall bit rate               : 11.5 Mbps


Video

Format                         : AVC
Format profile                 : [email protected]
Format settings, ReFrames      : 5 frames
Duration                       : 1h 59mn
Bit rate                       : 10.2 Mbps
Width                          : 1 920 pixels
Height                         : 816 pixels
Frame rate                     : 23.976 fps
Scan type                      : Progressive
Stream size                    : 8.34 GiB (87%)


Audio #1

Format                         : AC-3
Mode extension                 : CM (complete main)
Duration                       : 1h 59mn
Bit rate mode                  : Constant
Bit rate                       : 640 Kbps
Channel(s)                     : 6 channels
Channel positions              : Front: L C R, Side: L R, LFE
Sampling rate                  : 48.0 KHz
Bit depth                      : 16 bits
Compression mode               : Lossy
Stream size                    : 546 MiB (6%)
Title                          : English
Language                       : English
Default                        : No
Forced                         : No


Audio #2

Format                         : AC-3
Format/Info                    : Audio Coding 3
Mode extension                 : CM (complete main)
Duration                       : 1h 59mn
Bit rate mode                  : Constant
Bit rate                       : 640 Kbps
Channel(s)                     : 2 channels
Channel positions              : Front: L R
Sampling rate                  : 48.0 KHz
Bit depth                      : 16 bits
Compression mode               : Lossy
Stream size                    : 546 MiB (6%)
Title                          : Español
Language                       : Spanish
Default                        : Yes
Forced                         : No


Servidor:

MEGA
(DLC/7 Links)

The Mothman Prophecies (2002) 1080p MEGA
30 Puntos Score: 10/10
Visitas: 2418 Favoritos: 5
Ver los usuarios que votaron...
19 Comentarios The Mothman Prophecies (2002) 1080p MEGA
Excelente amigo. No la bajo porque ya la tengo pero, muy buena pel?
Porque pesa tanto?? casi 10gb!!  
O dios Mio ,Me encanta esta pelicula es una de mis faboritas ,Ace mucho tiempo q la buscaba para la coleccion, y genial en super buena calidad, hey amigo solo tengo una pregunta ,todos los Audios Bienen de la fuente BluRay inclullendo el Latino ?   hey Buen Trabajo Gracias
grax la chejkare haber ke pasa tks
@Shadow729  

@epalada  

@demianev  por la calidad tiene 10mb de bit rate (osea mas pixeles mas detalle)

@HYAKIMARU   gracias por pasar!

@Pocho_Mex el ingles si pero el latino es de dvd (no creo que encuentres esta version de latino en otro lugar)

@jostick  
PD. el ripeo de bluray de esta pelicula es de la version de ALEMANIA
puedes subir el audio latino aparte ?
@gonval aqui esta http://www.identi.li/index.php?topic=385240 pero este audio esta sincronizado para esta version, si la quieres utilizar para otra version tendras que sincronizarla
a ok pues gracias po responder tan rapido, he pues tu le iseste un deley al audio latino ?
Cita jerseyzv: Mostrar
muchas gracias sincroniza perfecto tambien es la version de alemania pero liviana, saludos.
@Pocho_Mex no hay delay, tiene un "silencio" de algunos segundos para sincronizar con el video, ya que si le agregaba delay era mucho y se desfasaba el audio al ver la pelicula
a lla entiendo genial buen trabajo bro  
Gracias Amigo y pues a descargarla ahora si espero que el audio este bien
gracias la andaba buscando
Muy buena.Gracias por compartir
Gracias....a verla...
muchas gracias..que buena calidad  
Para dejar un comentario Registrate! o.. eres ya usuario? Accede!