Dragones: Carrera al Borde (Season3) 1080p [03/13]







Dragons: Race to the Edge - (3 Temporada)

Capítulo 3:
Imperfect Harmony

NOTA: Audio latino capturado por jerseyzv


CAPTURAS DE PANTALLA







DETALLES


General

Format                         : Matroska
File size                      : 1.33 GiB
Duration                       : 22mn 45s
Overall bit rate               : 8 386 Kbps


Video

Format                         : AVC
Format profile                 : [email protected]
Format settings, ReFrames      : 4 frames
Duration                       : 22mn 45s
Bit rate                       : 7 259 Kbps
Width                          : 1 920 pixels
Height                         : 1 080 pixels
Display aspect ratio           : 16:9
Frame rate mode                : Constant
Frame rate                     : 23.976 fps
Scan type                      : Progressive
Stream size                    : 1.15 GiB (87%)
Writing library                : x264 core 144 r2525 40bb568


Audio #1

Format                         : AC-3
Mode extension                 : CM (complete main)
Duration                       : 22mn 45s
Bit rate mode                  : Constant
Bit rate                       : 640 Kbps
Channel(s)                     : 6 channels
Channel positions              : Front: L C R, Side: L R, LFE
Sampling rate                  : 48.0 KHz
Bit depth                      : 16 bits
Compression mode               : Lossy
Stream size                    : 104 MiB (8%)
Language                       : English
Default                        : Yes


Audio #2

Format                         : AC-3
Mode extension                 : CM (complete main)
Duration                       : 22mn 45s
Bit rate mode                  : Constant
Bit rate                       : 320 Kbps
Channel(s)                     : 2 channels
Channel positions              : Front: L R
Sampling rate                  : 48.0 KHz
Bit depth                      : 16 bits
Compression mode               : Lossy
Stream size                    : 52.1 MiB (4%)
Title                          : Español Latino
Language                       : Spanish
Default                        : No


Text #1

Format                         : UTF-8
Language                       : English
Default                        : No
Forced                         : No


Text #2

Format                         : UTF-8
Language                       : French
Default                        : No
Forced                         : No


Text #3

Format                         : UTF-8
Language                       : Spanish
Default                        : No
Forced                         : No



Dragones: Carrera al Borde (Season3) 1080p [03/13]
1 Puntos Score: 1/10
Visitas: 1079 Favoritos: 0
Ver los usuarios que votaron...
2 Comentarios Dragones: Carrera al Borde (Season3) 1080p [03/13]
Muchas gracias, espero con ansias los demas episodios  
Para dejar un comentario Registrate! o.. eres ya usuario? Accede!