Kickboxer [1989][Full HD][Audio Dual]

Kickboxer [1989][Full HD][Audio Dual]




Ficha técnica:


Título original: Kickboxer
Año: 1989
Duración: 103 min.
País: Estados Unidos
Director: Mark DiSalle, David Worth
Guión: Glenn Bruce (Historia: Jean-Claude Van Damme & Mark DiSalle)
Música: Paul Hertzog
Fotografía: Jon Kranhouse
Reparto:Jean-Claude Van Damme, Dennis Alexio, Dennis Chan, Michel Qissi (AKA Tong Po), Haskell Anderson, Rochelle Ashana
Productora: Kings Road Entertainment
Género: Acción | Artes marciales. Deporte

Sinopsis:

Cuando Tong Po, el sanguinario campeón de Kickboxing, deja paralítico a su hermano, Eric jura vengarse del hombre a quienes todos consideran invencible, aunque le cueste la vida. (FILMAFFINITY)

Info media:

Format                                       : Matroska

Format version                           : Version 4 / Version 2

File size                                      : 2.67 GiB

Duration                                     : 1h 37mn

Overall bit rate                            : 3 918 Kbps

Movie name                                : Kickboxer (1989) FullHD

Encoded date                              : UTC 2015-06-21 04:12:03

Writing application                       : mkvmerge v8.0.0 ('Til The Day That I Die') 64bit

Writing library                             : libebml v1.3.1 + libmatroska v1.4.2

DURATION                                  : 00:00:05.000000000

NUMBER_OF_FRAMES                  : 1

NUMBER_OF_BYTES                     : 31

_STATISTICS_WRITING_APP         : mkvmerge v8.0.0 ('Til The Day That I Die') 64bit

_STATISTICS_WRITING_DATE_UTC             : 2015-06-21 04:12:03

_STATISTICS_TAGS                        : BPS DURATION NUMBER_OF_FRAMES NUMBER_OF_BYTES

Attachment                               : Yes



Video
ID                                              : 1
Format                                       : AVC
Format/Info                                : Advanced Video Codec
Format profile                             : [email protected]
Format settings, CABAC               : Yes
Format settings, ReFrames           : 2 frames
Codec ID                                     : V_MPEG4/ISO/AVC
Duration                                      : 1h 37mn
Bit rate                                        : 2 881 Kbps
Width                                          : 1 920 pixels
Height                                         : 1 080 pixels
Display aspect ratio                      : 16:9
Frame rate mode                          : Constant
Frame rate                                   : 23.976 fps
Color space                                  : YUV
Chroma subsampling                     : 4:2:0
Bit depth                                     : 8 bits
Scan type                                    : Progressive
Bits/(Pixel*Frame)                       : 0.058
Stream size                                : 1.96 GiB (74%)
Title                                           : Kickboxer (1989) FullHD
Writing library                             : x264 core
Language                                   : English
Default                                      : Yes
Forced                                       : No
Color primaries                           : BT.709
Transfer characteristics                : BT.709
Matrix coefficients                       : BT.709

Audio #1
ID                                            : 2
Format                                     : AC-3
Format/Info                              : Audio Coding 3
Mode extension                         : CM (complete main)
Format settings, Endianness       : Big
Codec ID                                  : A_AC3
Duration                                   : 1h 37mn
Bit rate mode                            : Constant
Bit rate                                     : 448 Kbps
Channel count                           : 6 channels
Channel positions                       : Front: L C R, Side: L R, LFE
Sampling rate                            : 48.0 KHz
Bit depth                                   : 16 bits
Compression mode                     : Lossy
Stream size                              : 312 MiB (11%)
Title                                         : Audio Latino
Language                                 : Spanish
Default                                     : Yes
Forced                                      : No

Audio #2
ID                                          : 3

Format                                   : AC-3
Format/Info                            : Audio Coding 3
Mode extension                       : CM (complete main)
Format settings, Endianness     : Big
Codec ID                                 : A_AC3
Duration                                  : 1h 37mn
Bit rate mode                           : Constant
Bit rate                                    : 512 Kbps
Channel count                          : 6 channels
Channel positions                     : Front: L C R, Side: L R, LFE
Sampling rate                          : 48.0 KHz
Bit depth                                 : 16 bits
Compression mode                   : Lossy
Stream size                             : 357 MiB (13%)
Title                                        : Audio Ingles
Language                                 : English
Default                                     : No
Forced                                      : No

Text #1
ID                                           : 4
Format                                    : UTF-8
Codec ID                                 : S_TEXT/UTF8
Codec ID/Info                          : UTF-8 Plain Text
Title                                        : Subtitulo Español
Default                                   : No
Forced                                    : No

Text #2
ID                                          : 5
Format                                   : UTF-8
Codec ID                                : S_TEXT/UTF8
Codec ID/Info                         : UTF-8 Plain Text
Title                                       : Subtitulo ingles
Default                                   : No
Forced                                    : No

Text #3
ID                                          : 6
Format                                   : UTF-8
Codec ID                                : S_TEXT/UTF8
Codec ID/Info                         : UTF-8 Plain Text
Title                                       : Kickboxer (1989) FullHD By Mr.Tiny
Default                                   : Yes
Forced                                    : Yes


Capturas:





Pass:
byV4ne

Kickboxer [1989][Full HD][Audio Dual]
52 Puntos Score: 8.7/10
Visitas: 2409 Favoritos: 1
Ver los usuarios que votaron...
16 Comentarios Kickboxer [1989][Full HD][Audio Dual]
Gracias Trolo +30
Gracias @LucaseR mis primeros 30 de un solo usuario, saludos
Cita LucaseR: Mostrar
jajajajaaja
Dejame ver si las tengo @markus92 y te nombro el dia que las publique ok
gracias gracias porfaa una de chuck norris!!!!
tengo muchas de chuck norris y en 1080p solo que me esperes porfa, @crisrock
Trolo Subi Las De Bruce Lee, Dual y 1080p
Voy a subir las que tenga de don Bruce Lee @LucaseR pero esperame tantito porfa, subo una peli cada 3hrs aprox, y no siempre estoy en linea
@v4ne es el latino antiguo o el redoblaje para bluray de esta pelicula???
Cita v4ne: Mostrar
me uno al pedido chuck norris por favor  
@v4ne - La misma Pregunta :

Cita PVCHVNGO: Mostrar
no me baja la parte 13
Muchas Gracias!!!!!    
@neoguille son 14 partes, ya los baje y si sirven intenta de nuevo, gracias por pasar y por los puntos @zepol2015 por cierto es el redoblaje para Bluray
se agradece  , aunque se extrana el doblaje original.
Para dejar un comentario Registrate! o.. eres ya usuario? Accede!