Dragones: Carrera al Borde (Season3) 1080p [01/13]







Dragons: Race to the Edge - (3 Temporada)

Capítulo 1: Eye Of The Beholder Part 1

NOTA: Audio latino capturado por jerseyzv


CAPTURAS DE PANTALLA








DETALLES
General
Format                         : Matroska
File size                      : 1.07 GiB
Duration                       : 22mn 45s
Overall bit rate               : 6 750 Kbps

Video
Format                         : AVC
Format profile                 : [email protected]
Format settings, ReFrames      : 4 frames
Bit rate                       : 5 656 Kbps
Width                          : 1 920 pixels
Height                         : 1 080 pixels
Display aspect ratio           : 16:9
Frame rate                     : 23.976 fps
Scan type                      : Progressive
Stream size                    : 921 MiB (84%)
Writing library                : x264 core 144 r2525 40bb568

Audio #1

Format                         : AC-3
Mode extension                 : CM (complete main)
Bit rate mode                  : Constant
Bit rate                       : 640 Kbps
Channel(s)                     : 6 channels
Channel positions              : Front: L C R, Side: L R, LFE
Sampling rate                  : 48.0 KHz
Bit depth                      : 16 bits
Compression mode               : Lossy
Stream size                    : 104 MiB (9%)
Language                       : English
Default                        : Yes

Audio #2
Format                         : AC-3
Mode extension                 : CM (complete main)
Bit rate mode                  : Constant
Bit rate                       : 320 Kbps
Channel(s)                     : 2 channels
Channel positions              : Front: L R
Sampling rate                  : 48.0 KHz
Bit depth                      : 16 bits
Compression mode               : Lossy
Stream size                    : 52.1 MiB (5%)
Title                          : Español Latino
Language                       : Spanish
Default                        : No

Text #1

Format                         : UTF-8
Language                       : English
Default                        : No
Forced                         : No


Text #2

Format                         : UTF-8
Language                       : French
Default                        : No
Forced                         : No

Text #3
Format                         : UTF-8
Language                       : Spanish
Default                        : No
Forced                         : No





Dragones: Carrera al Borde (Season3) 1080p [01/13]
6 Puntos Score: 3/10
Visitas: 1891 Favoritos: 4
Ver los usuarios que votaron...
10 Comentarios Dragones: Carrera al Borde (Season3) 1080p [01/13]
Una consulta..... ?
Esto quiere decir que hay una segunda temporada, y que no la visto por ning?
Es la serie de netflix amigo? Graciias
Muchas gracias. +5  
amigo tendras la temporada 1 y 2, en latino y subiras completa la temporada 3?????
@tymonalpha no tengo la 1 y 2 en latino pero las consegire; la 3 tratare de subirla completa
@jerseyzv gracias por responder, y tocara esperar
yo tambien ya hiba a empezar a preguntar pero lei tu comentario @jerseyzv y todo me quedo claro  
Para dejar un comentario Registrate! o.. eres ya usuario? Accede!