Mi Pobre Diablillo 1 y 2 Problem Child 720p latino

Mi Pobre Diablillo 1 y 2 Problem Child 1 y 2 720p Dual latino ingles WEB-DL 


Título original: Problem Child 
País: Estados Unidos
Director: Dennis Dugan
Guión: Scott Alexander, Larry Karaszewski
Música: Miles Goodman
Año: 1990
Género:Comedia, Infantil
Fotografía: Peter Lyons Collister
Reparto:John Ritter, Michael Oliver, Jack Warden, Gilbert Gottfried, Michael Richards, Amy Yasbeck
Productora: Universal Pictures


Ben Healy es un yuppie que trabaja para su padre Big Ben, un tiránico distribuidor de material deportivo. A Ben le encantaría tener un hijo, pero su mujer Flo es incapaz de concebirlos. Ben utilizará al poco escrupuloso agente Igor Peabody, el cual les presentará a un curioso y extremadamente revoltoso muchacho de siete años que ha sido devuelto treinta veces al orfanato a causa de su carácter incorregible, y al que ni siquiera las monjas desean cuidar de él.

Capturas








Video
ID                          : 1
Format                      : AVC
Format/Info                 : Advanced Video Codec
Format profile              : [email protected]
Format settings, CABAC      : No
Format settings, ReFrames   : 2 frames
Codec ID                    : V_MPEG4/ISO/AVC
Duration                    : 1h 20mn
Bit rate                    : 4 185 Kbps
Width                       : 1 280 pixels
Height                      : 716 pixels
Display aspect ratio        : 16:9
Frame rate mode             : Constant
Frame rate                  : 23.976 fps
Color space                 : YUV
Chroma subsampling          : 4:2:0
Bit depth                   : 8 bits
Scan type                   : Progressive
Bits/(Pixel*Frame)          : 0.190
Stream size                 : 2.36 GiB (89%)
Title                       : Mi pobre diablillo 1
Language                    : English
Default                     : Yes
Forced                      : No
Color primaries             : BT.709
Transfer characteristics    : BT.709
Matrix coefficients         : BT.709
Color range                 : Limited

Audio #1
ID                          : 2
Format                      : AC-3
Format/Info                 : Audio Coding 3
Mode extension              : CM (complete main)
Format settings, Endianness : Big
Codec ID                    : A_AC3
Duration                    : 1h 20mn
Bit rate mode               : Constant
Bit rate                    : 256 Kbps
Channel(s)                  : 2 channels
Channel positions           : Front: L R
Sampling rate               : 48.0 KHz
Bit depth                   : 16 bits
Compression mode            : Lossy
Stream size                 : 148 MiB (5%)
Title                       : Latino
Language                    : Latin
Default                     : Yes
Forced                      : Yes

Audio #2
ID                          : 3
Format                      : AC-3
Format/Info                 : Audio Coding 3
Format profile              : Dolby Digital
Mode extension              : CM (complete main)
Format settings, Endianness : Big
Codec ID                    : A_AC3
Duration                    : 1h 20mn
Bit rate mode               : Constant
Bit rate                    : 192 Kbps
Channel(s)                  : 2 channels
Channel positions           : Front: L R
Sampling rate               : 48.0 KHz
Bit depth                   : 16 bits
Compression mode            : Lossy
Stream size                 : 111 MiB (4%)
Title                       : Ingles
Language                    : English
Default                     : No
Forced                      : No




Subida a lolabits, ya me canse de crear cuentas en mega,esperemos a ver cuanto duran los links, asi que ha descargar al pedo





Título original: Problem Child II
País: Estados Unidos
Director: Brian Levant
Guión: Scott Alexander, Larry Karaszewski
Música: David Kitay
Año: 1991
Género:Comedia. Infantil | Secuela 
Fotografía: Peter Smokler
Reparto:John Ritter, Michael Oliver, Jack Warden, Laraine Newman, Amy Yasbeck, Yvyann Schwan, Gilbert Gottfried
Productora: Universal Pictures


Ben y su hijo adoptivo, Junior, se han trasladado a una nueva ciudad. El lugar tiene una muy especial característica: contiene cincuenta mujeres por cada habitante masculino.

Capturas 







Video
ID                             : 1
Format                         : AVC
Format/Info                    : Advanced Video Codec
Format profile                 : [email protected]
Format settings, CABAC         : No
Format settings, ReFrames      : 2 frames
Codec ID                       : V_MPEG4/ISO/AVC
Duration                       : 1h 30mn
Width                          : 1 280 pixels
Height                         : 690 pixels
Display aspect ratio           : 1.85:1
Frame rate mode                : Constant
Frame rate                     : 23.976 fps
Color space                    : YUV
Chroma subsampling             : 4:2:0
Bit depth                      : 8 bits
Scan type                      : Progressive
Title                          : Mi pobre diablillo 2
Language                       : English
Default                        : Yes
Forced                         : No
Color range                    : Limited
Color primaries                : BT.709
Transfer characteristics       : BT.709
Matrix coefficients            : BT.709

Audio #1
ID                             : 2
Format                         : AC-3
Format/Info                    : Audio Coding 3
Mode extension                 : CM (complete main)
Format settings, Endianness    : Big
Codec ID                       : A_AC3
Duration                       : 1h 30mn
Bit rate mode                  : Constant
Bit rate                       : 256 Kbps
Channel(s)                     : 2 channels
Channel positions              : Front: L R
Sampling rate                  : 48.0 KHz
Bit depth                      : 16 bits
Compression mode               : Lossy
Stream size                    : 166 MiB (6%)
Title                          : Latino
Language                       : Latin
Default                        : Yes
Forced                         : Yes

Audio #2
ID                             : 3
Format                         : AAC
Format/Info                    : Advanced Audio Codec
Format profile                 : LC
Codec ID                       : A_AAC
Duration                       : 1h 30mn
Channel(s)                     : 2 channels
Channel positions              : Front: L R
Sampling rate                  : 48.0 KHz
Compression mode               : Lossy
Title                          : Ingles
Language                       : English
Default                        : No
Forced                         : No



Subida a lolabits, ya me canse de crear cuentas en mega,esperemos a ver cuanto duran los links, asi que ha descargar al pedo





Mi Pobre Diablillo 1 y 2 Problem Child 720p latino
105 Puntos Score: 9.5/10
Visitas: 4402 Favoritos: 12
Ver los usuarios que votaron...
30 Comentarios Mi Pobre Diablillo 1 y 2 Problem Child 720p latino
Excelente amigo, gracias por compartir    
Este servidor me va lento en jdownloader.
Gracias...!!!  ... juanw200  .... por las movies......  
Las estaba buscando en calidad 720p o 1080p ....
Muchisimas gracias...!!!..... me las estaba pidiendo mi esposa.....
Hasta luego....y..... I'll be back...!!!!  
nooo me comi el viaje... crei que era mi pobre angelito!!!
awanten las pelis de antes las puedes ver muchas veces y despues de un tiempo la puedes volver a ver las de ahora las vez una vez y no te quedan ganas de volver a verlas  
que locos..me cagaba de risa con estas.gracias x el aporte.
Muchas gracias!!  
todo iba muy bien hasta que vi donde las subiste
@kal555 es lo que hay, o puedes esperar a que otro la suba a otro servidor
Gracias muy amable!!  
Cita kal555: Mostrar

No veo el problema , ya lo baje mas rapido que en mega , muchas graciassssssssss
Buen aporte.Gracias
no puedo descargar la parte 7 de la 1 , me dice archivo no disponible , arreglalo por favor solo me falta esa .
ahi te deje mis 10 y gracasi por las pelis
Gracias por el aporte
Muchas gracias, las buscaba en HD!
GRACIAS,GRACIAS LA ESTABA BUSCANDO POR MUCHO TIEMPO GRACIAS
@matute1212 amigo descarga los enlaces con el idm aqui untutorial para acelerarlo al 100% https://youtu.be/ALoS9qxwaR4
gracias man, esta completo el audio latino o tiene aprtes en ingles?? gracias !!  
@abrahamrem si creo que esta completo ya no me acuerdo muy bien
Saludos!... si eres tan amable de re-subir estas buenas pel?
amigo estan caidos ojala puedas decirme donde las puedo bajar gracias
amigo subelas de nuevo porfa
Para dejar un comentario Registrate! o.. eres ya usuario? Accede!