Las cenizas de Ángela 1999 película dvdrip latino

Las cenizas de Ángela 1999 Angela's Ashes película dvdrip audio latino exclusivo 

Aqui les dejo esta excelente pelicula en audio latino,busque por toda la web y no pude encontrarla en latino,pero recorde que la tenia grabada del canal fox en un vhs,por ahora es todo lo que hay y lo comparto con ustedes,complete la pelicula con partes en ingles y añadi los subtitulos a esas partes asi que a disfrutar.

Cuenta la vida de una familia inmigrante irlandesa en Nueva York, los McCourt. En 1935, son tiempos de emigración a América, pero esta familia hace el camino contrario. Malachy (Robert Carlyle), un alcohólico, y su mujer Ángela (Emily Watson) deciden huir a Limerick (Irlanda) con sus cuatro hijos después de ver fallecer a su hija con tan sólo siete semanas.

La vida en Irlanda va a ser muy dura. El hijo mayor, Frank, tendrá que ponerse a trabajar, pero no va a ser suficiente.

Es la representación de varios aspectos en los que se desenvuelve la vida humana: los religiosos, los políticos, los económicos todos mezclados y vividos y sufridos por una familia.

Capturas

Format/Info                 : Audio Video Interleave
File size                   : 1.57 GiB
Duration                    : 2h 25mn
Overall bit rate            : 1 540 Kbps
Writing application         : VirtualDubMod 1.5.10.3 | www.virtualdub-fr.org || (build 2550/release)
Writing library             : VirtualDubMod build 2550/release

Video
ID                          : 0
Format                      : MPEG-4 Visual
Format profile              : Advanced [email protected]
Format settings, BVOP       : 1
Format settings, QPel       : No
Format settings, GMC        : No warppoints
Format settings, Matrix     : Custom
Codec ID                    : XVID
Codec ID/Hint               : XviD
Duration                    : 2h 25mn
Bit rate                    : 1 338 Kbps
Width                       : 720 pixels
Height                      : 416 pixels
Display aspect ratio        : 1.731
Frame rate                  : 23.976 fps
Color space                 : YUV
Chroma subsampling          : 4:2:0
Bit depth                   : 8 bits
Scan type                   : Progressive
Compression mode            : Lossy
Bits/(Pixel*Frame)          : 0.186
Stream size                 : 1.36 GiB (87%)
Writing library             : XviD 1.2.1 (UTC 2008-12-04)

Audio
ID                          : 1
Format                      : AC-3
Format/Info                 : Audio Coding 3
Mode extension              : CM (complete main)
Format settings, Endianness : Big
Codec ID                    : 2000
Duration                    : 2h 25mn
Bit rate mode               : Constant
Bit rate                    : 192 Kbps
Channel(s)                  : 2 channels
Channel positions           : Front: L R
Sampling rate               : 48.0 KHz
Bit depth                   : 16 bits
Compression mode            : Lossy
Stream size                 : 200 MiB (12%)
Alignment                   : Split accross interleaves
Interleave, duration        : 42 ms (1.00 video frame)
Interleave, preload duratio : 500 ms


Audio latino y sincronizacion por juanw200,servidor mega,necesitas Jd o Mi Pony para poder descargar


Las cenizas de Ángela 1999 película dvdrip latino
95 Puntos Score: 9.5/10
Visitas: 2176 Favoritos: 10
Ver los usuarios que votaron...
18 Comentarios Las cenizas de Ángela 1999 película dvdrip latino
Muchas gracias por la pel?
Yo subi  muchos clasicos dificiles de conseguir EN LA RED y se apreciar que  este es un  Gran aporte amigo  esto si vale la pena  se te agradece  mucho......... saludos amigo    
con que programa unistes nel audio en partes en ingles y latino??
Muchisimas gracias de verdad amigo y tienes toda la raz?
@treun yo tambien, hace tiempo postie el dvd full aqui en identi ,@BUBAXX de nada @gohitan yo uso el Sound Forge Audio Studio,@winxp311 asi es,  yo hace a?
@juanw200 aaa wena amigo y es dificil sincronizar y unir partes de diferentes audios ?? con ese programa tuyo esque a una peli quiero ponerle a las partes unrated en ingles    
@gohitan la verdad es que si es un poco complicado y necesitas tener mucha paciencia,has buscado la pelicula en otras partes, que pelicula es
@juanw200 si amigo son poquitos minutos en ingles nomas veelo en mi post se llama proyecto never back down
@juanw200 excelente aporte de casualidad no tenes la peli un domingo cualquiera en latino?
Amigo: Tu aporte es genial, pero la parte 8 no aparece. ?
gracias por compartir se le agradece mucho amigo      
Gracias por tu esfuerzo y trabajo, saludos.
La tengo en espa?
@bonanott no esa no la tengo @Scarface75  revisa bien hay que usar jd o myi pony @Renlyl @willow1914   @mariano125  9 horas nada mas me tarde
van  + 10 !
por tu trabajo  
Muchas gracias por tu gran trabajo excelente edici?
es una pena que los links est?
Para dejar un comentario Registrate! o.. eres ya usuario? Accede!